Miley Cyrus – Dooo It! (2015.Trap)


Size : 139.99 MiB (146788758 Bytes)

MILEY CYRUS - DOOO IT!

http://ultraimg.com/images/miley-2.png
http://ultraimg.com/images/miley-3.png


General
Miley Cyrus - Dooo It!
Format
















: MPEG-4
Format profile












: Base Media
Codec ID















: isom
File size















: 140 MiB
Duration















: 4mn 26s
Overall bit rate











: 4 400 Kbps
MusicVid name













: Dooo It!
Album

















: Miley Cyrus and Her Dead Petz
Performer















: Miley Cyrus
Genre

















: Trap
ContentType














: Music Video
Recorded date













: 2015
Rating
















: Unrated
Make

















: MeRaDil
Release date













: USA . august 30 . 2015
https://thepiratebay.vg/user/MeRaDil

Video
ID


















: 1
Format
















: AVC
Format/Info














: Advanced Video Codec
Format profile












: [email protected]/* */
Format settings, CABAC








: Yes
Format settings, ReFrames







: 2 frames
Codec ID















: avc1
Codec ID/Info













: Advanced Video Coding
Duration















: 4mn 26s
Bit rate















: 4 120 Kbps
Width

















: 1 920 pixels
Height
















: 1 080 pixels
Display aspect ratio









: 16:9
Frame rate mode












: Variable
Frame rate














: 23.976 fps
Minimum frame rate










: 23.974 fps
Maximum frame rate










: 23.981 fps
Color space














: YUV
Chroma subsampling










: 4:2:0
Bit depth















: 8 bits
Scan type















: Progressive
Bits/(Pixel*Frame)










: 0.083
Stream size














: 131 MiB (94%)

Audio
ID


















: 2
Format
















: AAC
Format/Info














: Advanced Audio Codec
Format profile












: LC
Codec ID















: 40
Duration















: 4mn 26s
Bit rate mode













: Constant
Bit rate















: 256 Kbps
Channel(s)














: 2 channels
Channel positions











: Front: L R
Sampling rate













: 44.1 KHz
Compression mode











: Lossy
Stream size














: 8.14 MiB (6%)

Miley Cyrus and Her Dead Petz * Promo * Trap