Miley Cyrus – We Can’t Stop [Music Video] 720p [Sbyky]


Size : 63.69 MiB (66788046 Bytes)

[IMG]http://www.shotpix.com/photos/20130805137572753184230.jpg[/IMG]

General
Complete name













: Miley Cyrus - We Can't Stop [Music Video] 720p [Sbyky].mp4
Format
















: MPEG-4
Format profile












: Base Media / Version 2
Codec ID















: mp42
File size















: 63.7 MiB
Duration















: 3mn 33s
Overall bit rate mode









: Variable
Overall bit rate











: 2 508 Kbps
Encoded date













: UTC 2013-07-08 14:45:09
Tagged date














: UTC 2013-07-08 14:45:09

Video
ID


















: 1
Format
















: AVC
Format/Info














: Advanced Video Codec
Format profile












: [email protected]/* */
Format settings, CABAC








: Yes
Format settings, ReFrames







: 1 frame
Codec ID















: avc1
Codec ID/Info













: Advanced Video Coding
Duration















: 3mn 33s
Bit rate















: 2 314 Kbps
Maximum bit rate











: 7 647 Kbps
Width

















: 1 280 pixels
Height
















: 720 pixels
Display aspect ratio









: 16:9
Frame rate mode












: Constant
Frame rate














: 23.976 fps
Color space














: YUV
Chroma subsampling










: 4:2:0
Bit depth















: 8 bits
Scan type















: Progressive
Bits/(Pixel*Frame)










: 0.105
Stream size














: 58.8 MiB (92%)
Tagged date














: UTC 2013-07-08 14:45:12

Audio
ID


















: 2
Format
















: AAC
Format/Info














: Advanced Audio Codec
Format profile












: LC
Codec ID















: 40
Duration















: 3mn 33s
Bit rate mode













: Variable
Bit rate















: 192 Kbps
Maximum bit rate











: 202 Kbps
Channel(s)














: 2 channels
Channel positions











: Front: L R
Sampling rate













: 44.1 KHz
Compression mode











: Lossy
Stream size














: 4.88 MiB (8%)
Title

















: IsoMedia File Produced by Google, 5-11-2011
Encoded date













: UTC 2013-07-08 14:45:11
Tagged date














: UTC 2013-07-08 14:45:12

Shared By Sbyky
[IMG]http://www.shotpix.com/photos/20130722137449689157289.gif[/IMG]
[IMG]http://www.shotpix.com/photos/20130722137449694197310.gif[/IMG]