Miss Congeniality pack (PSP + Ipod touch + Zune)


Size : 856.6 MiB (898207720 Bytes)

Miss Congeniality pack
http://www.imdb.com/title/tt0212346/
http://www.imdb.com/title/tt0385307/

Subs :

N/A

Source
:

Miss.Congeniality.2000.BluRay.720p.DTS.x264-CHD-1

Miss.Congeniality.2.Armed.And.Fabulous.2005.720p.BluRay.x264-MELiTE

Info :

ID














: 1
Format












: AVC
Format/Info










: Advanced Video Codec
Format profile








: [email protected]/* */
Format settings, CABAC




: No
Format settings, ReFrames



: 3 frames
Codec ID











: avc1
Codec ID/Info









: Advanced Video Coding
Duration











: 1h 50mn
Bit rate mode









: Variable
Bit rate











: 400 Kbps
Width













: 480 pixels
Height












: 272 pixels
Display aspect ratio





: 16:9
Frame rate mode








: Variable
Frame rate










: 23.976 fps
Minimum frame rate






: 23.810 fps
Maximum frame rate






: 24.390 fps
Color space










: YUV
Chroma subsampling






: 4:2:0
Bit depth











: 8 bits
Scan type











: Progressive
Bits/(Pixel*Frame)






: 0.128
Stream size










: 315 MiB (75%)
Writing library








: x264 core 79

ID














: 2
Format












: AAC
Format/Info










: Advanced Audio Codec
Format version








: Version 4
Format profile








: LC
Format settings, SBR





: No
Codec ID











: 40
Duration











: 1h 50mn
Bit rate mode









: Variable
Bit rate











: 128 Kbps
Maximum bit rate







: 195 Kbps
Channel(s)










: 2 channels
Channel positions







: Front: L R
Sampling rate









: 48.0 KHz
Stream size










: 101 MiB (24%)
Language











: English

Screens:
http://img688.imageshack.us/img688/3528/misscongeniality2ooom4v.jpg
http://img801.imageshack.us/img801/9441/misscongenialityooom4vt.jpg



ALL REQUESTS WILL BE IGNORED FOR NOW.. HAVE WAY TOO MANY MOVIES TO DO! LOL

PLEASE LET THE TORRENT SEED AND SPREAD THE WORD ABOUT IT!


Let me know what I can do to be your trusted source of Handheld videos.
http://thepiratebay.se/user/on.off.on/ -OOO