Monsters.University.3D.2013.BluRay.Half-OU.x264.1080p.Hun.Eng


Size : 9.9 GiB (10630010944 Bytes)

Monsters.University.3D.2013.BluRay.Half-OU.x264.1080p.Hun.Eng
http://www.imdb.com/title/tt1453405/

General
Unique ID















: 224513751044762083048806193859509537741 (0xA8E7C68E23C841C8A1C25AE6A2CACBCD)
Complete name













: F:Monsters.University.3D.2013.BluRay.Half-OU.x264.1080p.Hun.EngMonsters University 3D (2013) Half-OU 1080p.mkv
Format
















: Matroska
Format version












: Version 4 / Version 2
File size















: 9.90 GiB
Duration















: 1h 43mn
Overall bit rate











: 13.7 Mbps
Encoded date













: UTC 2013-11-08 10:32:55
Writing application










: mkvmerge v6.4.1 ('Omega Point') built on Sep 16 2013 22:05:10
Writing library












: libebml v1.3.0 + libmatroska v1.4.1

Video
ID


















: 1
Format
















: AVC
Format/Info














: Advanced Video Codec
Format profile












: [email protected]/* */
Format settings, CABAC








: Yes
Format settings, ReFrames







: 4 frames
Codec ID















: V_MPEG4/ISO/AVC
Duration















: 1h 43mn
Bit rate















: 11.5 Mbps
Width

















: 1 920 pixels
Height
















: 1 080 pixels
Display aspect ratio









: 16:9
Frame rate mode












: Constant
Frame rate














: 23.976 fps
Color space














: YUV
Chroma subsampling










: 4:2:0
Bit depth















: 8 bits
Scan type















: Progressive
Bits/(Pixel*Frame)










: 0.231
Stream size














: 8.14 GiB (82%)
Title

















: Monsters University 3D (2013) Half-OU 1080p
Writing library












: x264 core 133 r2334 a3ac64b
Encoding settings











: cabac=1 // deblock=1:-2:-2 / analyse=0x3:0x113 / me=tesa / subme=11 / psy=1 / psy_rd=0.90:0.00 // me_range=32 / chroma_me=1 / trellis=2 / 8x8dct=1 / cqm=0 / deadzone=21,11 / fast_pskip=0 / chroma_qp_offset=-2 / threads=12 / lookahead_threads=2 / sliced_threads=0 / nr=0 / decimate=0 / interlaced=0 / bluray_compat=0 / constrained_intra=0 / bframes=8 / b_pyramid=2 / b_adapt=2 / b_bias=0 / direct=3 / weightb=1 / open_gop=0 / weightp=2 / keyint=250 / keyint_min=23 / scenecut=40 / intra_refresh=0 / rc_lookahead=40 / rc=2pass / mbtree=0 / bitrate=11500 / ratetol=1.0 / qcomp=0.60 / qpmin=10 / qpmax=69 / qpstep=4 / cplxblur=20.0 / qblur=0.5 / vbv_maxrate=40000 / vbv_bufsize=30000 / nal_hrd=none / frame-packing=4 / ip_ratio=1.30 / pb_ratio=1.15 / aq=1:0.80
Default
















: Yes
Forced
















: No

Audio #1
ID


















: 2
Format
















: AC-3
Format/Info














: Audio Coding 3
Mode extension












: CM (complete main)
Format settings, Endianness






: Big
Codec ID















: A_AC3
Duration















: 1h 43mn
Bit rate mode













: Constant
Bit rate















: 640 Kbps
Channel(s)














: 6 channels
Channel positions











: Front: L C R, Side: L R, LFE
Sampling rate













: 48.0 KHz
Bit depth















: 16 bits
Compression mode











: Lossy
Stream size














: 475 MiB (5%)
Title

















: 5.1
Language















: Hungarian
Default
















: Yes
Forced
















: No

Audio #2
ID


















: 3
Format
















: DTS
Format/Info














: Digital Theater Systems
Mode

















: 16
Format settings, Endianness






: Big
Codec ID















: A_DTS
Duration















: 1h 43mn
Bit rate mode













: Constant
Bit rate















: 1 509 Kbps
Channel(s)














: 6 channels
Channel positions











: Front: L C R, Side: L R, LFE
Sampling rate













: 48.0 KHz
Bit depth















: 24 bits
Compression mode











: Lossy
Stream size














: 1.09 GiB (11%)
Title

















: DTS
Language















: English
Default
















: No
Forced
















: No

Text #1
ID


















: 4
Format
















: VobSub
Muxing mode














: zlib
Codec ID















: S_VOBSUB
Codec ID/Info













: The same subtitle format used on DVDs
Title

















: 3D forced
Language















: Hungarian
Default
















: Yes
Forced
















: No

Text #2
ID


















: 5
Format
















: VobSub
Muxing mode














: zlib
Codec ID















: S_VOBSUB
Codec ID/Info













: The same subtitle format used on DVDs
Title

















: 3D full
Language















: Hungarian
Default
















: No
Forced
















: No

Text #3
ID


















: 6
Format
















: UTF-8
Codec ID















: S_TEXT/UTF8
Codec ID/Info













: UTF-8 Plain Text
Title

















: 2D full
Language















: Hungarian
Default
















: No
Forced
















: No

Text #4
ID


















: 7
Format
















: UTF-8
Codec ID















: S_TEXT/UTF8
Codec ID/Info













: UTF-8 Plain Text
Title

















: 2D forced
Language















: Hungarian
Default
















: No
Forced
















: No

Text #5
ID


















: 8
Format
















: VobSub
Muxing mode














: zlib
Codec ID















: S_VOBSUB
Codec ID/Info













: The same subtitle format used on DVDs
Title

















: 3D full
Language















: English
Default
















: No
Forced
















: No

Text #6
ID


















: 9
Format
















: UTF-8
Codec ID















: S_TEXT/UTF8
Codec ID/Info













: UTF-8 Plain Text
Title

















: 2D full
Language















: English
Default
















: No
Forced
















: No
http://port.hu/szorny_egyetem_monsters_university/pls/fi/films.film_page?i_topic_id=2&i_film_id=133883&i_city_id=-1&i_county_id=-1