Mr.Peabody.&.Sherman.2014.1080p.3D.BRRip.HOU..x264.Hun.Eng


Size : 10.9 GiB (11701116752 Bytes)

Mr.Peabody.&.Sherman.2014.1080p.3D.BRRip.HOU..x264.Hun.Eng
http://www.imdb.com/title/tt0864835/

General
Unique ID















: 234110633217136853713142840339171439112 (0xB0201160AA2073609CC6B4368C8CF208)
Complete name













: F:\Mr.Peabody.&.Sherman.2014.1080p.3D.BRRip.HOU..x264.Hun.EngMr. Peabody & Sherman 3D (2014) HOU 1080p.mkv
Format
















: Matroska
Format version












: Version 4 / Version 2
File size















: 10.9 GiB
Duration















: 1h 32mn
Overall bit rate











: 16.9 Mbps
Encoded date













: UTC 2014-08-09 12:56:51
Writing application










: mkvmerge v7.1.0 ('Good Love') 64bit built on Jul 27 2014 13:06:55
Writing library












: libebml v1.3.0 + libmatroska v1.4.1
DURATION















: 01:21:28.923000000
NUMBER_OF_FRAMES











: 1394
NUMBER_OF_BYTES












: 4654639
_STATISTICS_WRITING_APP








: mkvmerge v7.1.0 ('Good Love') 64bit built on Jul 27 2014 13:06:55
_STATISTICS_WRITING_DATE_UTC





: 2014-08-09 12:56:51
_STATISTICS_TAGS











: BPS DURATION NUMBER_OF_FRAMES NUMBER_OF_BYTES

Video
ID


















: 1
Format
















: AVC
Format/Info














: Advanced Video Codec
Format profile












: [email protected]/* */
Format settings, CABAC








: Yes
Format settings, ReFrames







: 4 frames
Codec ID















: V_MPEG4/ISO/AVC
Duration















: 1h 32mn
Bit rate















: 14.6 Mbps
Width

















: 1 920 pixels
Height
















: 1 080 pixels
Display aspect ratio









: 16:9
Frame rate mode












: Constant
Frame rate














: 23.976 fps
Color space














: YUV
Chroma subsampling










: 4:2:0
Bit depth















: 8 bits
Scan type















: Progressive
Bits/(Pixel*Frame)










: 0.293
Stream size














: 9.42 GiB (86%)
Title

















: Mr. Peabody & Sherman 3D (2014) HOU 1080p
Writing library












: x264 core 133 r2334kMod a3ac64b
Encoding settings











: cabac=1 / ref=4 / deblock=1:-3:-3 / analyse=0x3:0x133 / me=umh / subme=10 / psy=1 / fade_compensate=0.00 / psy_rd=0.80:0.00 / mixed_ref=1 / me_range=24 / chroma_me=1 / trellis=2 / 8x8dct=1 / cqm=0 / deadzone=21,11 / fast_pskip=0 / chroma_qp_offset=-2 / threads=6 / lookahead_threads=1 / sliced_threads=0 / nr=0 / decimate=0 / interlaced=0 / bluray_compat=0 / constrained_intra=0 / bframes=9 / b_pyramid=2 / b_adapt=2 / b_bias=0 / direct=3 / weightb=1 / open_gop=0 / weightp=2 / keyint=250 / keyint_min=23 / scenecut=40 / intra_refresh=0 / rc=crf / mbtree=0 / crf=15.0000 / qcomp=0.65 / qpmin=0 / qpmax=69 / qpstep=4 / frame-packing=4 / ip_ratio=1.20 / pb_ratio=1.10 / aq=1:0.85
Default
















: Yes
Forced
















: No
DURATION















: 01:32:27.584000000
NUMBER_OF_FRAMES











: 133009
NUMBER_OF_BYTES












: 10332937314
_STATISTICS_WRITING_APP








: mkvmerge v7.1.0 ('Good Love') 64bit built on Jul 27 2014 13:06:55
_STATISTICS_WRITING_DATE_UTC





: 2014-08-09 12:56:51
_STATISTICS_TAGS











: BPS DURATION NUMBER_OF_FRAMES NUMBER_OF_BYTES

Audio #1
ID


















: 2
Format
















: AC-3
Format/Info














: Audio Coding 3
Mode extension












: CM (complete main)
Format settings, Endianness






: Big
Codec ID















: A_AC3
Duration















: 1h 32mn
Bit rate mode













: Constant
Bit rate















: 448 Kbps
Channel(s)














: 6 channels
Channel positions











: Front: L C R, Side: L R, LFE
Sampling rate













: 48.0 KHz
Bit depth















: 16 bits
Compression mode











: Lossy
Stream size














: 296 MiB (3%)
Title

















: 5.1
Language















: Hungarian
Default
















: Yes
Forced
















: No

Audio #2
ID


















: 3
Format
















: DTS
Format/Info














: Digital Theater Systems
Format profile












: ES
Mode

















: 16
Format settings, Endianness






: Big
Codec ID















: A_DTS
Duration















: 1h 32mn
Bit rate mode













: Constant
Bit rate















: 1 509 Kbps
Channel(s)














: 6 channels
Channel positions











: Front: L C R, Side: L R, LFE
Sampling rate













: 48.0 KHz
Bit depth















: 24 bits
Compression mode











: Lossy
Stream size














: 998 MiB (9%)
Title

















: DTS 5.1
Language















: English
Default
















: No
Forced
















: No

Text #1
ID


















: 4
Format
















: VobSub
Muxing mode














: zlib
Codec ID















: S_VOBSUB
Codec ID/Info













: The same subtitle format used on DVDs
Title

















: 3D forced
Language















: Hungarian
Default
















: Yes
Forced
















: No

Text #2
ID


















: 5
Format
















: VobSub
Muxing mode














: zlib
Codec ID















: S_VOBSUB
Codec ID/Info













: The same subtitle format used on DVDs
Title

















: 3d full
Language















: Hungarian
Default
















: No
Forced
















: No

Text #3
ID


















: 6
Format
















: VobSub
Muxing mode














: zlib
Codec ID















: S_VOBSUB
Codec ID/Info













: The same subtitle format used on DVDs
Title

















: 3D full
Language















: English
Default
















: No
Forced
















: No
http://www.port.hu/mr._peabody_es_sherman_kalandjai_mr._peabody_&_sherman/pls/fi/films.film_page?i_topic_id=2&i_film_id=147443&i_city_id=-1&i_county_id=-1