Muse-Live.at.Main.Square.Festival.2015.720p.x264-AUSHD


Size : 1.57 GiB (1682382819 Bytes)

General

Format










: MPEG-4
Format profile






: Base Media / Version 2
Codec ID









: mp42 (isom/mp42)
File size








: 1.57 GiB
Duration









: 1 h 32 min
Overall bit rate mode


: Variable
Overall bit rate





: 2 429 kb/s
Encoded date







: UTC 2015-08-02 14:14:57
Tagged date







: UTC 2015-08-02 14:14:57
gsst











: 0
gstd











: 5540048
gssd











: BADC29406


Video

ID












: 1
Format










: AVC
Format/Info







: Advanced Video Codec
Format profile






: [email protected]/* */
Format settings, CABAC


: Yes
Format settings, ReFrames
: 1 frame
Codec ID









: avc1
Codec ID/Info






: Advanced Video Coding
Duration









: 1 h 32 min
Bit rate









: 2 235 kb/s
Maximum bit rate





: 8 151 kb/s
Width










: 1 280 pixels
Height










: 720 pixels
Display aspect ratio



: 16:9
Frame rate mode





: Constant
Frame rate








: 30.000 FPS
Color space







: YUV
Chroma subsampling




: 4:2:0
Bit depth








: 8 bits
Scan type








: Progressive
Bits/(Pixel*Frame)




: 0.081
Stream size







: 1.44 GiB (92%)
Tagged date







: UTC 2015-08-02 14:16:21


Audio

ID












: 2
Format










: AAC
Format/Info







: Advanced Audio Codec
Format profile






: LC
Codec ID









: 40
Duration









: 1 h 32 min
Bit rate mode






: Variable
Bit rate









: 192 kb/s
Maximum bit rate





: 201 kb/s
Channel(s)








: 2 channels
Channel positions




: Front: L R
Sampling rate






: 44.1 kHz
Frame rate








: 43.066 FPS (1024 spf)
Compression mode





: Lossy
Stream size







: 127 MiB (8%)
Language









: unk
Encoded date







: UTC 2015-08-02 14:15:51
Tagged date







: UTC 2015-08-02 14:16:21