My Bloody Valentine 3D (Stereoscopic Side-by-Side MKV)


Size : 8.15 GiB (8748781832 Bytes)

This is a stereoscopic 3D rip of My Bloody Valentine, for new 3D TVs or computers with Nvidia 3D Vision. Tested with Stereoscopic Player. Enjoy!

Title: My Bloody Valentine (2009)
Rated: R
Runtime: 101 Minutes
Genre: Crime | Horror | Mystery

Description:
In the mining town of Harmony, a drilling accident is caused by the son of the owner, Tom Hanniger. The mine collapses, burying six miners alive. The rescue team finds only Harry Warden alive, but in coma, and the other miners murdered by his pickax, and they conclude that Harry killed them to save oxygen for himself. On Valentine's Day, Harry awakes from his coma in the local hospital, and he kills twenty-two people, including a group of teenagers that are partying in the mine. Harry is killed by the deputy, but the only survivors are Tom Hanniger, his girlfriend Sarah, their friend Axel Palmer and his girlfriend Irene. Ten years later, Tom returns to Harmony after the death of his father. Tom has decided to sell the Hanniger Mine, and finds that Sarah has married Axel, who is now the local sheriff, and they have a son named Noah. On Valentine's Day, Harry Warden also returns, seeking revenge against those that had escaped his pickax in the past...
-From IMDB Page: http://www.imdb.com/title/tt1179891/

General
Unique ID : 208468061731790972201439885322000087823 (0x9CD57CFE32D53E63869CF708EABD3B0F)
Complete name : [filepath]\My Bloody Valentine 3D.mkv
Format : Matroska
File size : 8.15 GiB
Duration : 1h 41mn
Overall bit rate : 11.5 Mbps
Encoded date : UTC 2010-10-09 09:47:52
Writing application : mkvmerge v4.3.0 ('Escape from the Island') gemaakt op Sep 5 2010 10:30:51
Writing library : libebml v1.0.0 + libmatroska v1.0.0

Video
ID : 1
Format : AVC
Format/Info : Advanced Video Codec
Format profile : [email protected]/* */
Format settings, CABAC : No
Format settings, ReFrames : 1 frame
Format settings, GOP : M=1, N=12
Codec ID : V_MPEG4/ISO/AVC
Duration : 1h 41mn
Bit rate : 10 000 Kbps
Width : 1 920 pixels
Height : 1 080 pixels
Display aspect ratio : 16:9
Frame rate : 23.976 fps
Color space : YUV
Chroma subsampling : 4:2:0
Bit depth : 8 bits
Scan type : Progressive
Bits/(Pixel*Frame) : 0.201
Stream size : 6.92 GiB (85%)
Writing library : x264 core 67 r1127 8d82fec
Language : English

Audio
ID : 2
Format : DTS
Format/Info : Digital Theater Systems
Codec ID : A_DTS
Duration : 1h 41mn
Bit rate mode : Constant
Bit rate : 1 510 Kbps
Channel(s) : 6 channels
Channel positions : Front: L C R, Side: L R, LFE
Sampling rate : 48.0 KHz
Bit depth : 24 bits
Compression mode : Lossy
Stream size : 1.07 GiB (13%)
Language : English