n 2001 – WebHDRip 720p x264 AAC TaRa.mkv


Size : 1.16 GiB (1247875578 Bytes)

===================================================================
General
Complete name






: Tum Bin (2001) WebHDRip 720p x264 AAC [ TaRa ].mkv
Format










: Matroska
Format version






: Version 4 / Version 2
File size








: 1.16 GiB
Duration









: 2 h 32 min
Overall bit rate





: 1 094 kb/s
===================================================================
Video
ID












: 1
Format










: AVC
Format/Info







: Advanced Video Codec
Format profile






: [email protected]/* */
Format settings, CABAC


: Yes
Format settings, ReFrames
: 4 frames
Codec ID









: V_MPEG4/ISO/AVC
Duration









: 2 h 32 min
Bit rate









: 1 000 kb/s
Width










: 1 280 pixels
Height










: 512 pixels
Display aspect ratio



: 2.500
Frame rate mode





: Constant
Frame rate








: 23.976 (24000/1001) FPS
Color space







: YUV
Chroma subsampling




: 4:2:0
Bit depth








: 8 bits
Scan type








: Progressive
Bits/(Pixel*Frame)




: 0.064
Stream size







: 1.06 GiB (91%)
Title










: .....::::: TaRa :::::.....
Language









: Hindi
Default









: Yes
Forced










: No
==================================================================

Audio
ID












: 2
Format










: AAC
Format/Info







: Advanced Audio Codec
Format profile






: LC
Codec ID









: A_AAC
Duration









: 2 h 32 min
Bit rate









: 96.0 kb/s
Channel(s)








: 2 channels
Channel positions




: Front: L R
Sampling rate






: 48.0 kHz
Frame rate








: 46.875 FPS (1024 spf)
Compression mode





: Lossy
Delay relative to video

: -74 ms
Stream size







: 104 MiB (9%)
Title










: .....::::: TaRa :::::.....
Language









: Hindi
Default









: Yes
Forced










: No
=================================================================== http://extraimage.net/image/wVye