Naughty Boy ft. Beyoncé – Runnin’ (Lose It All) 2015


Size : 102.51 MiB (107489179 Bytes)

NAUGHTY BOY ft.BEYONCÉ & ARROW BENJAMIN - RUNNIN'(LOSE IT ALL)

http://gifyu.com/images/runnin-1.png
https://thepiratebay.mn/user/MeRaDil


MEDIA INFO
Naughty Boy ft. Beyoncé & Arrow Benjamin - Runnin' (Lose It All)
Format
















: MPEG-4
Format profile












: Base Media
Codec ID















: isom
File size















: 103 MiB
Duration















: 3mn 43s
Overall bit rate











: 3 840 Kbps
MusicVid name













: Runnin' (Lose It All)
Performer















: Naughty Boy ft. Beyoncé & Arrow Benjamin
Genre

















: Pop
ContentType














: Music Video
Recorded date













: 2015
Rating
















: ***
Make

















: MeRaDil
Release date













: UK - september 17 - 2015

Video
ID


















: 1
Format
















: AVC
Format/Info














: Advanced Video Codec
Format profile












: [email protected]/* */
Format settings, CABAC








: Yes
Format settings, ReFrames







: 2 frames
Codec ID















: avc1
Codec ID/Info













: Advanced Video Coding
Duration















: 3mn 43s
Bit rate















: 3 578 Kbps
Width

















: 1 920 pixels
Height
















: 1 080 pixels
Display aspect ratio









: 16:9
Frame rate mode












: Constant
Frame rate














: 25.000 fps
Color space














: YUV
Chroma subsampling










: 4:2:0
Bit depth















: 8 bits
Scan type















: Progressive
Bits/(Pixel*Frame)










: 0.069
Stream size














: 95.5 MiB (93%)

Audio
ID


















: 2
Format
















: AAC
Format/Info














: Advanced Audio Codec
Format profile












: LC
Codec ID















: 40
Duration















: 3mn 43s
Bit rate mode













: Constant
Bit rate















: 256 Kbps
Channel(s)














: 2 channels
Channel positions











: Front: L R
Sampling rate













: 44.1 KHz
Compression mode











: Lossy
Stream size














: 6.83 MiB (7%)

Naughty Boy * Beyoncé * Arrow Benjamin * Promo