Nicky Jam y Enrique Iglesias – El Perdón (2015.Latin)


Size : 61.93 MiB (64934554 Bytes)

NICKY JAM y ENRIQUE IGLESIAS - EL PERDÓN

http://gifyu.com/images/ElPerdon-1.png
https://thepiratebay.mn/user/MeRaDil


MEDIA INFO
General
Nicky Jam y Enrique Iglesias - El Perdón
Format
















: MPEG-4
Format profile












: Base Media
Codec ID















: isom
File size















: 61.9 MiB
Duration















: 3mn 46s
Overall bit rate











: 2 289 Kbps
MusicVid name













: El Perdón
Performer















: Nicky Jam y Enrique Iglesias
Genre

















: Latin
ContentType














: Music Video
Recorded date













: 2015
Rating
















: ***
Make

















: MeRaDil
Release date













: USA - march 23 - 2015

Video
ID


















: 1
Format
















: AVC
Format/Info














: Advanced Video Codec
Format profile












: [email protected]/* */
Format settings, CABAC








: Yes
Format settings, ReFrames







: 3 frames
Codec ID















: avc1
Codec ID/Info













: Advanced Video Coding
Duration















: 3mn 46s
Bit rate















: 2 019 Kbps
Width

















: 1 920 pixels
Height
















: 1 080 pixels
Display aspect ratio









: 16:9
Frame rate mode












: Variable
Frame rate














: 23.976 fps
Minimum frame rate










: 23.974 fps
Maximum frame rate










: 23.981 fps
Color space














: YUV
Chroma subsampling










: 4:2:0
Bit depth















: 8 bits
Scan type















: Progressive
Bits/(Pixel*Frame)










: 0.041
Stream size














: 54.6 MiB (88%)

Audio
ID


















: 2
Format
















: AAC
Format/Info














: Advanced Audio Codec
Format profile












: LC
Codec ID















: 40
Duration















: 3mn 46s
Bit rate mode













: Constant
Bit rate















: 256 Kbps
Channel(s)














: 2 channels
Channel positions











: Front: L R
Sampling rate













: 44.1 KHz
Compression mode











: Lossy
Stream size














: 6.93 MiB (11%)

Nicky Jam * Enrique Iglesias * Latin * Reggaeton * Promo