Night of The Creeps 3D – Theatrical Version – HSBS – 1986


Size : 5.63 GiB (6045134767 Bytes)

 Alien brain parasites, entering humans through the mouth, turn their host into a killing zombie. Some teenagers start to fight against them.

Director:
Fred Dekker
Writer:
Fred Dekker
Stars:
Jason Lively, Tom Atkins, Steve Marshall

Format
















: Matroska
Format version












: Version 2
File size















: 5.63 GiB
Duration















: 1h 29mn
Overall bit rate











: 8 970 Kbps

Video
ID


















: 1
Format
















: AVC
Format/Info














: Advanced Video Codec
Format profile












: [email protected]/* */
Format settings, CABAC








: Yes
Format settings, ReFrames







: 2 frames
Codec ID















: V_MPEG4/ISO/AVC
Duration















: 1h 29mn
Bit rate















: 7 458 Kbps
Width

















: 1 920 pixels
Height
















: 1 080 pixels
Display aspect ratio









: 16:9
Frame rate mode












: Constant
Frame rate














: 23.976 fps
Color space














: YUV
Chroma subsampling










: 4:2:0
Bit depth















: 8 bits
Scan type















: Progressive
Bits/(Pixel*Frame)










: 0.150
Stream size














: 4.57 GiB (81%)
Writing library












: x264 core 142

Audio
ID


















: 2
Format
















: DTS
Format/Info














: Digital Theater Systems
Mode

















: 16
Format settings, Endianness






: Big
Codec ID















: A_DTS
Duration















: 1h 29mn
Bit rate mode













: Constant
Bit rate















: 1 509 Kbps
Channel(s)














: 6 channels
Channel positions











: Front: L C R, Side: L R, LFE
Sampling rate













: 48.0 KHz
Bit depth















: 24 bits
Compression mode











: Lossy
Stream size














: 970 MiB (17%)
Language















: English