Noah 2014 3D 1080p BluRay Half-SBS x264 AC3 DUAL ASM


Size : 10.88 GiB (11682293862 Bytes)

Noah lives with his wife Naameh and sons Shem, Ham and Japheth in a desolate land where men persecute and kill each other. One day, Noah receives a message from the Creator that must find Methuselah. DURANTEo journey he ends up saving the life of the young Ila, who has a serious wound in the belly. By finding Methuselah, Noah discovers he has the task of building a huge ark, which will house the animals during a flood that will end life on earth, so that the vision of the Creator may be, finally rescued.

Title in Brazil: Noah
Original Title: Noah
Director: Darren Aronofsky
Duration: 137 min
Release Year: 2014
Genre: Adventure
IMDB: http://www.imdb.com/title/tt1959490/

Size: 10.88 GB
File Extension:. MKV
Video Quality: Blu-Ray - 3D
Video codec: H.264 / AVC
Audio Codec: AC3 5.1
Resolution: 1920 x 1080
Audio Language: Portuguese / English
Subtitles: Portuguese


Format
















: Matroska
Format version












: Version 2
File size















: 10.9 GiB
Duration















: 2h 17mn
Overall bit rate











: 11.3 Mbps
Writing application










: HandBrake 0.9.9
Writing library












: libmkv 0.6.5

Video
ID


















: 1
Format
















: AVC
Format/Info














: Advanced Video Codec
Format profile












: [email protected]/* */
Format settings, CABAC








: Yes
Format settings, ReFrames







: 4 frames
Codec ID















: V_MPEG4/ISO/AVC
Duration















: 2h 17mn
Bit rate















: 10 000 Kbps
Width

















: 1 920 pixels
Height
















: 1 080 pixels
Display aspect ratio









: 16:9
Frame rate mode












: Variable
Frame rate














: 23.976 fps
Color space














: YUV
Chroma subsampling










: 4:2:0
Bit depth















: 8 bits
Scan type















: Progressive
Bits/(Pixel*Frame)










: 0.201
Stream size














: 9.42 GiB (87%)
Writing library












: x264 core 130 r2273 b3065e6
Encoding settings











: cabac=1 / ref=3 / deblock=1:0:0 / analyse=0x3:0x113 / me=hex / subme=7 / psy=1 / psy_rd=1.00:0.00 / mixed_ref=1 / me_range=16 / chroma_me=1 / trellis=1 / 8x8dct=1 / cqm=0 / deadzone=21,11 / fast_pskip=1 / chroma_qp_offset=-2 / threads=6 / lookahead_threads=1 / sliced_threads=0 / nr=0 / decimate=1 / interlaced=0 / bluray_compat=0 / constrained_intra=0 / bframes=3 / b_pyramid=2 / b_adapt=1 / b_bias=0 / direct=1 / weightb=1 / open_gop=0 / weightp=2 / keyint=240 / keyint_min=24 / scenecut=40 / intra_refresh=0 / rc_lookahead=40 / rc=2pass / mbtree=1 / bitrate=10000 / ratetol=1.0 / qcomp=0.60 / qpmin=0 / qpmax=69 / qpstep=4 / cplxblur=20.0 / qblur=0.5 / ip_ratio=1.40 / aq=1:1.00
Language















: English
Default
















: Yes
Forced
















: No
Color primaries












: BT.709-5, BT.1361, IEC 61966-2-4, SMPTE RP177
Transfer characteristics







: BT.709-5, BT.1361
Matrix coefficients










: BT.709-5, BT.1361, IEC 61966-2-4 709, SMPTE RP177

Audio #1
ID


















: 2
Format
















: AC-3
Format/Info














: Audio Coding 3
Mode extension












: CM (complete main)
Format settings, Endianness






: Big
Codec ID















: A_AC3
Duration















: 2h 17mn
Bit rate mode













: Constant
Bit rate















: 640 Kbps
Channel(s)














: 6 channels
Channel positions











: Front: L C R, Side: L R, LFE
Sampling rate













: 48.0 KHz
Bit depth















: 16 bits
Compression mode











: Lossy
Stream size














: 631 MiB (6%)
Language















: Portuguese
Default
















: Yes
Forced
















: No

Audio #2
ID


















: 3
Format
















: AC-3
Format/Info














: Audio Coding 3
Mode extension












: CM (complete main)
Format settings, Endianness






: Big
Codec ID















: A_AC3
Duration















: 2h 17mn
Bit rate mode













: Constant
Bit rate















: 640 Kbps
Channel(s)














: 6 channels
Channel positions











: Front: L C R, Side: L R, LFE
Sampling rate













: 48.0 KHz
Bit depth















: 16 bits
Compression mode











: Lossy
Stream size














: 631 MiB (6%)
Language















: English
Default
















: No
Forced
















: No


SEED PLEASE

ENJOY...