O.Grande.Gatsby.Dublado.1080p – DEJAVUBR


Size : 2.08 GiB (2231544099 Bytes)

O GRANDE GATSBY (2013) 1080p 3D DUBLADO - PT-BR - DEJAVUBR


=======================================================
==== w w w . t h e p i r a t e f i l m e s . c o m ====
=======================================================

Nick Carraway (Tobey Maguire) tinha um grande fascínio por seu vizinho, o misterioso Jay Gatsby (Leonardo DiCaprio). Após ser convidado pelo milionário para uma festa incrível, o relacionamento de ambos torna-se uma forte amizade. Quando Nick descobre que seu amigo tem uma antiga paixão por sua prima Daisy Buchanan (Carey Mulligan), ele resolve reaproximar os dois, esquecendo o fato dela ser casada com seu velho amigo dos tempos de faculdade, o também endinheirado Tom Buchanan (Joel Edgerton). Agora, o conflito está armado e as consequências serão trágicas.


Lançamento}

7 de junho de 2013 (2h 22min)
Dirigido por:
Baz Luhrmann
Com:





Leonardo DiCaprio, Tobey Maguire, Carey Mulligan mais
Gênero:



Drama , Romance
Nacionalidade:
Austrália , EUA
Formato: MP4
Qualidade: 1080p (Full HD) 3D(HSBS)
Idioma: PT-BR (Audio 5.1)
OBS: Filmes 3D só funcionam em TVs ou Monitores 3D


PARA MAIS FILMES VISITEM:
=======================================================
==== w w w . t h e p i r a t e f i l m e s . c o m ====
=======================================================

AO FIM DO DOWNLOAD FIQUE SEMEANDO/ENVIANDO, PARA QUE EU POSSA ENVIAR OUTROS FILMES COM QUALIDADE! Obrigado!




Video

ID













: 1
Format











: AVC
Format/Info









: Advanced Video Codec
Format profile







: [email protected]/* */
Format settings, CABAC



: Yes
Format settings, ReFrames


: 4 frames
Codec ID










: avc1
Codec ID/Info








: Advanced Video Coding
Duration










: 2h 22mn
Bit rate










: 1 959 Kbps
Maximum bit rate






: 19.9 Mbps
Width












: 1 920 pixels
Height











: 1 080 pixels
Display aspect ratio




: 16:9
Frame rate mode







: Constant
Frame rate









: 23.976 fps
Color space









: YUV
Chroma subsampling





: 4:2:0
Bit depth










: 8 bits
Scan type










: Progressive
Bits/(Pixel*Frame)





: 0.039
Stream size









: 1.94 GiB (94%)



Audio

ID













: 2
Format











: AAC
Format/Info









: Advanced Audio Codec
Format profile







: LC
Codec ID










: 40
Duration










: 2h 22mn
Bit rate mode








: Variable
Bit rate










: 132 Kbps
Maximum bit rate






: 190 Kbps
Channel(s)









: 2 channels
Channel positions






: Front: L R
Sampling rate








: 44.1 KHz
Compression mode






: Lossy
Stream size









: 133 MiB (6%)
Encoded date








: UTC 2013-08-10 04:06:08
Tagged date









: UTC 2013-08-10 04:06:16