Orange is the new black S04E02 720p WEBRip x264-TheRival


Size : 960.97 MiB (1007653183 Bytes)

Screens:  http://extraimage.net/image/artu  http://extraimage.net/image/artv

Video
ID : 1
Format : AVC
Format/Info : Advanced Video Codec
Format profile : [email protected]/* */
Format settings, CABAC : Yes
Format settings, ReFrames : 2 frames
Format settings, GOP : M=1, N=24
Codec ID : avc1
Codec ID/Info : Advanced Video Coding
Duration : 59mn 14s
Source duration : 59mn 11s
Bit rate mode : Variable
Bit rate : 2 041 Kbps
Maximum bit rate : 3 315 Kbps
Width : 1 280 pixels
Height : 720 pixels
Display aspect ratio : 16:9
Frame rate mode : Constant
Frame rate : 23.976 (23976/1000) fps
Color space : YUV
Chroma subsampling : 4:2:0
Bit depth : 8 bits
Scan type : Progressive
Bits/(Pixel*Frame) : 0.092
Stream size : 865 MiB (90%)
Source stream size : 905 MiB (94%)
Encoded date : UTC 2016-06-17 09:58:32
Tagged date : UTC 2016-06-17 10:06:33
Color primaries : BT.709
Transfer characteristics : BT.709
Matrix coefficients : BT.709

Audio
ID : 2
Format : AAC
Format/Info : Advanced Audio Codec
Format profile : LC
Codec ID : 40
Duration : 59mn 11s
Bit rate mode : Variable
Bit rate : 128 Kbps
Maximum bit rate : 132 Kbps
Channel(s) : 2 channels
Channel positions : Front: L R
Sampling rate : 48.0 KHz
Frame rate : 46.875 fps (1024 spf)
Compression mode : Lossy
Stream size : 54.2 MiB (6%)
Title : English (aac 2.0)
Language : English
Default : Yes
Alternate group : 1