Orange is the new black S04E09 720p WEBRip x264-TheRival

Magnet Download Torrent Download

Size : 918.99 MiB (963636098 Bytes)

 http://extraimage.net/image/aGNB  http://extraimage.net/image/aGNC

Video
ID : 1
Format : AVC
Format/Info : Advanced Video Codec
Format profile : [email protected]/* */
Format settings, CABAC : Yes
Format settings, ReFrames : 2 frames
Format settings, GOP : M=1, N=24
Codec ID : avc1
Codec ID/Info : Advanced Video Coding
Duration : 56mn 19s
Source duration : 56mn 16s
Bit rate mode : Variable
Bit rate : 2 054 Kbps
Maximum bit rate : 3 315 Kbps
Width : 1 280 pixels
Height : 720 pixels
Display aspect ratio : 16:9
Frame rate mode : Constant
Frame rate : 23.976 (23976/1000) fps
Color space : YUV
Chroma subsampling : 4:2:0
Bit depth : 8 bits
Scan type : Progressive
Bits/(Pixel*Frame) : 0.093
Stream size : 828 MiB (90%)
Source stream size : 866 MiB (94%)
Encoded date : UTC 2016-06-17 20:22:55
Tagged date : UTC 2016-06-17 20:29:46
Color primaries : BT.709
Transfer characteristics : BT.709
Matrix coefficients : BT.709

Audio
ID : 2
Format : AAC
Format/Info : Advanced Audio Codec
Format profile : LC
Codec ID : 40
Duration : 56mn 16s
Bit rate mode : Variable
Bit rate : 128 Kbps
Maximum bit rate : 132 Kbps
Channel(s) : 2 channels
Channel positions : Front: L R
Sampling rate : 48.0 KHz
Frame rate : 46.875 fps (1024 spf)
Compression mode : Lossy
Stream size : 51.5 MiB (6%)
Title : Undetermined (aac 2.0)
Default : Yes
Alternate group : 1