Orange is the new black S04E12 720p WEBRip x264-TheRival


Size : 887.7 MiB (930825100 Bytes)

 http://extraimage.net/image/aGEJ  http://extraimage.net/image/aGEK  http://extraimage.net/image/aGEZ  http://extraimage.net/image/aGEe

Video
ID : 1
Format : AVC
Format/Info : Advanced Video Codec
Format profile : [email protected]/* */
Format settings, CABAC : Yes
Format settings, ReFrames : 2 frames
Format settings, GOP : M=1, N=24
Codec ID : avc1
Codec ID/Info : Advanced Video Coding
Duration : 1h 0mn
Source duration : 1h 0mn
Bit rate mode : Variable
Bit rate : 1 937 Kbps
Maximum bit rate : 3 000 Kbps
Width : 1 280 pixels
Height : 720 pixels
Display aspect ratio : 16:9
Frame rate mode : Constant
Frame rate : 23.976 (24000/1001) fps
Color space : YUV
Chroma subsampling : 4:2:0
Bit depth : 8 bits
Scan type : Progressive
Bits/(Pixel*Frame) : 0.088
Stream size : 831 MiB (94%)
Source stream size : 831 MiB (94%)
Encoded date : UTC 2016-06-18 01:38:50
Tagged date : UTC 2016-06-18 01:46:23
Color primaries : BT.709
Transfer characteristics : BT.709
Matrix coefficients : BT.709

Audio
ID : 2
Format : AAC
Format/Info : Advanced Audio Codec
Format profile : LC
Codec ID : 40
Duration : 1h 0mn
Bit rate mode : Variable
Bit rate : 128 Kbps
Maximum bit rate : 132 Kbps
Channel(s) : 2 channels
Channel positions : Front: L R
Sampling rate : 48.0 KHz
Frame rate : 46.875 fps (1024 spf)
Compression mode : Lossy
Stream size : 54.9 MiB (6%)
Title : English (aac 2.0)
Language : English
Default : Yes
Alternate group : 1