Pacific Rim (2013) 3D HSBS Dual Audio Español Latino, Ing


Size : 5.49 GiB (5893168959 Bytes)

SIPNOSIS
Cuando legiones de monstruosas criaturas, denominadas Kaiju, comienzan a salir del mar, se inicia una guerra que acabará con millones de vidas y que consumirá los recursos de la humanidad durante interminables años. Para combatir a los Kaiju gigantes diseñan un tipo especial de arma: enormes robots, llamados Jaegers, que son controlados simultáneamente por dos pilotos cuyas mentes están bloqueadas en un puente neural. Pero incluso los Jaegers proporcionan poca defensa ante los incansables Kaiju. A punto de la derrota, las fuerzas que defienden a la humanidad no tienen otra elección que recurrir a dos insólitos héroes: un ex piloto acabado (Charlie Hunnam) y un aprendiz que todavía no se ha puesto a prueba (Rinko Kikuchi). Ambos se unen para traer a un legendario pero al parecer obsoleto Jaeger del pasado. Juntos, son la última esperanza de la humanidad frente al Apocalipsis que se avecina.

Format : Matroska
Format version : Version 4 / Version 2
File size : 5.49 GiB
Duration : 2h 11mn
Overall bit rate : 5 982 Kbps
Encoded date : UTC 2013-10-11 18:10:54
Writing application : mkvmerge v6.3.0 ('You can't stop me!') built on Jun 28 2013 20:09:41
Writing library : libebml v1.3.0 + libmatroska v1.4.0

Video
ID : 1
Format : AVC
Format/Info : Advanced Video Codec
Format profile : [email protected]/* */
Format settings, CABAC : Yes
Format settings, ReFrames : 4 frames
Codec ID : V_MPEG4/ISO/AVC
Duration : 2h 11mn
Bit rate : 4 839 Kbps
Width : 1 920 pixels
Height : 1 080 pixels
Display aspect ratio : 16:9
Frame rate mode : Constant
Frame rate : 23.976 fps
Color space : YUV
Chroma subsampling : 4:2:0
Bit depth : 8 bits
Scan type : Progressive
Bits/(Pixel*Frame) : 0.097
Stream size : 4.44 GiB (81%)
Writing library : x264 core 130 r2273 b3065e6
Encoding settings : cabac=1 // deblock=1:-1:-1 / analyse=0x1:0x111 / me=hex / subme=2 / psy=1 / psy_rd=1.00:0.15 // me_range=16 / chroma_me=1 / trellis=0 / 8x8dct=0 / cqm=0 / deadzone=21,11 / fast_pskip=1 / chroma_qp_offset=0 / threads=6 / lookahead_threads=2 / sliced_threads=0 / nr=0 / decimate=1 / interlaced=0 / bluray_compat=0 / constrained_intra=0 / bframes=3 / b_pyramid=2 / b_adapt=1 / b_bias=0 / direct=1 / weightb=1 / open_gop=0 / weightp=1 / keyint=240 / keyint_min=24 / scenecut=40 / intra_refresh=0 / rc_lookahead=10 / rc=crf / mbtree=1 / crf=24.5 / qcomp=0.60 / qpmin=0 / qpmax=69 / qpstep=4 / vbv_maxrate=20000 / vbv_bufsize=25000 / crf_max=0.0 / nal_hrd=none / ip_ratio=1.40 / aq=1:1.00
Language : English
Default : Yes
Forced : No
Color primaries : BT.709
Transfer characteristics : BT.709
Matrix coefficients : BT.709

Audio #1
ID : 2
Format : AC-3
Format/Info : Audio Coding 3
Mode extension : CM (complete main)
Format settings, Endianness : Big
Codec ID : A_AC3
Duration : 2h 11mn
Bit rate mode : Constant
Bit rate : 640 Kbps
Channel(s) : 6 channels
Channel positions : Front: L C R, Side: L R, LFE
Sampling rate : 48.0 KHz
Bit depth : 16 bits
Compression mode : Lossy
Stream size : 601 MiB (11%)
Title : Español Latino
Language : Latin
Default : Yes
Forced : No

Audio #2
ID : 3
Format : AC-3
Format/Info : Audio Coding 3
Mode extension : CM (complete main)
Format settings, Endianness : Big
Codec ID : A_AC3
Duration : 2h 11mn
Bit rate mode : Constant
Bit rate : 384 Kbps
Channel(s) : 6 channels
Channel positions : Front: L C R, Side: L R, LFE
Sampling rate : 48.0 KHz
Bit depth : 16 bits
Compression mode : Lossy
Stream size : 361 MiB (6%)
Title : Ingles
Language : English
Default : No
Forced : No

Text #1
ID : 4
Format : UTF-8
Codec ID : S_TEXT/UTF8
Codec ID/Info : UTF-8 Plain Text
Title : Forzados
Language : Latin
Default : Yes
Forced : Yes

Text #2
ID : 5
Format : UTF-8
Codec ID : S_TEXT/UTF8
Codec ID/Info : UTF-8 Plain Text
Title : Español Latino
Language : Latin
Default : No
Forced : No

Menu
00:00:00.000 : en:Chapter 1
00:09:09.132 : en:Chapter 2
00:18:35.906 : en:Chapter 3
00:23:04.425 : en:Chapter 4
00:33:00.520 : en:Chapter 5
00:42:44.896 : en:Chapter 6
00:50:01.749 : en:Chapter 7
01:01:09.749 : en:Chapter 8
01:14:45.272 : en:Chapter 9
01:22:21.436 : en:Chapter 10
01:32:09.983 : en:Chapter 11
01:41:55.693 : en:Chapter 12
01:51:37.941 : en:Chapter 13
01:59:21.070 : en:Chapter 14
02:02:17.914 : en:Chapter 15