Paul McCartney Rockshow – 2013 – 720p X264 [MKV,AC3,5.1] Ehhhh


Size : 3.61 GiB (3880568195 Bytes)


image image

image


Track Listing
Track # Title
1 Venus and Mars/Rock Show/Jet
2 Let Me Roll It
3 Spirits of Ancient Egypt
4 Medicine Jar
5 Maybe I'M Amazed
6 Call Me Back Again
7 Lady Madonna
8 The Long and Winding Road
9 Live and Let Die
10 Picasso's Last Words
11 Richard Cory
12 Bluebird
13 I'Ve Just Seen a Face
14 Blackbird
15 Yesterday
16 You Gave Me the Answer
17 Magneto and Titanium Man
18 Go Now
19 My Love
20 Listen to What the Man Said
21 Let 'Em in
22 Time to Hide
23 Silly Love Songs
24 Beware My Love
25 Letting Go
26 Band on the Run
27 Hi Hi Hi
28 Soily

Cast & Crew

Performance Credits
Paul McCartney
Linda McCartney
Jimmy McCulloch
Joe English
Denny Laine

Technical Credits
Paul McCartney Director, Executive Producer, Sound Mixer
Alan Brewer Consultant/advisor
Jack Priestley Cinematographer
Chris Thomas Sound Mixer



Rockshow, the long-awaited concert film documenting Paul McCartney & Wings historic 1976 Wings Over America tour, is better than it really has any right to be. This isn’t so much because of the surprisingly high quality of the video and audio restoration (particularly considering its near forty year vintage), nor of the performance itself (which is excellent start to stop).

Rather, what makes Rockshow a particularly stunning achievement is when you take into account the venue where the bulk of this concert was actually recorded. Seattle’s enormous Kingdome was a gigantic, indoor structure made entirely of cement. A domed stadium built primarily for Seattle’s then NFL expansion team the Seahawks, the Kingdome was the sort of acoustical nightmare that was never meant to play host to rock shows, even of the stadium-sized variety.

Over time, the NFL eventually figured out the Kingdome wasn’t that great for football either, and in March 2000, it finally fell victim to the wrecking ball.

Even so – and despite the fact that loud amplified music really has nowhere else to go inside a gigantic cement cavern, but to bounce off the walls – many superstar rock acts braved the challenges of the venue, and made the attempt anyway.

Opening for Aerosmith at the Kingdome, Jeff Beck was so pissed off at the horrendous sound, at one point he even made a crack welcoming the crowd to “the Kingdome echo chamber.”

But in 1976, Paul McCartney & Wings were the first to break the Kingdome in for rock shows. Most of us old-school veterans of Seattle’s rock scene agree to this day, that from the Stones and the Eagles, to U2 and The Who, Macca still remains the only guy who was able to really pull it off. At the time, Wings Kingdome performance also set an indoor concert attendance record for North America – drawing in an astounding 67,000 fans.

image

General
Complete name : J:UppersVidzPaul McCartney Rockshow - 2013 - 720p X264 [MKV,AC3,5.1] EhhhhPaul McCartney - Rockshow - Ehhhh.mkv
Format : Matroska
Format version : Version 4 / Version 2
File size : 3.61 GiB
Duration : 2h 9mn
Overall bit rate : 3 988 Kbps
Encoded date : UTC 2013-09-01 10:49:34
Writing application : mkvmerge v6.2.0 ('Promised Land') built on Apr 28 2013 12:22:01
Writing library : libebml v1.3.0 + libmatroska v1.4.0

Video
ID : 1
Format : AVC
Format/Info : Advanced Video Codec
Format profile : [email protected]/* */
Format settings, CABAC : Yes
Format settings, ReFrames : 14 frames
Codec ID : V_MPEG4/ISO/AVC
Duration : 2h 9mn
Bit rate : 3 500 Kbps
Width : 1 280 pixels
Height : 720 pixels
Display aspect ratio : 16:9
Frame rate mode : Constant
Frame rate : 23.976 fps
Color space : YUV
Chroma subsampling : 4:2:0
Bit depth : 8 bits
Scan type : Progressive
Bits/(Pixel*Frame) : 0.158
Stream size : 3.07 GiB (85%)
Writing library : x264 core 136 r2348+704+51 d1baef6 tMod [[email protected]/* */ X86]
Default : Yes
Forced : No

Audio
ID : 2
Format : AC-3
Format/Info : Audio Coding 3
Mode extension : CM (complete main)
Format settings, Endianness : Big
Codec ID : A_AC3
Duration : 2h 9mn
Bit rate mode : Constant
Bit rate : 512 Kbps
Channel(s) : 6 channels
Channel positions : Front: L C R, Side: L R, LFE
Sampling rate : 48.0 KHz
Bit depth : 16 bits
Compression mode : Lossy
Stream size : 474 MiB (13%)
Default : Yes
Forced : No