Pharrell Williams – Happy [Music Video] 1080p [Sbyky]

Magnet Download Torrent Download

Size : 62.45 MiB (65483158 Bytes)


General
Complete name













: Pharrell Williams - Happy [Music Video] 1080p [Sbyky].MP4
Format
















: MPEG-4
Format profile












: Base Media
Codec ID















: isom
File size















: 62.4 MiB
Duration















: 4mn 7s
Overall bit rate mode









: Variable
Overall bit rate











: 2 121 Kbps
Encoded date













: UTC 2014-01-10 06:09:03
Tagged date














: UTC 2014-01-10 06:09:03

Video
ID


















: 1
Format
















: AVC
Format/Info














: Advanced Video Codec
Format profile












: [email protected]/* */
Format settings, CABAC








: Yes
Format settings, ReFrames







: 3 frames
Codec ID















: avc1
Codec ID/Info













: Advanced Video Coding
Duration















: 4mn 6s
Bit rate















: 1 993 Kbps
Width

















: 1 920 pixels
Height
















: 1 080 pixels
Display aspect ratio









: 16:9
Frame rate mode












: Constant
Frame rate














: 23.976 fps
Color space














: YUV
Chroma subsampling










: 4:2:0
Bit depth















: 8 bits
Scan type















: Progressive
Bits/(Pixel*Frame)










: 0.040
Stream size














: 58.7 MiB (94%)
Encoded date













: UTC 2014-01-10 06:09:03
Tagged date














: UTC 2014-01-10 06:09:03

Audio
ID


















: 2
Format
















: AAC
Format/Info














: Advanced Audio Codec
Format profile












: LC
Codec ID















: 40
Duration















: 4mn 7s
Bit rate mode













: Variable
Bit rate















: 126 Kbps
Channel(s)














: 2 channels
Channel positions











: Front: L R
Sampling rate













: 44.1 KHz
Compression mode











: Lossy
Stream size














: 3.70 MiB (6%)
Encoded date













: UTC 2014-01-10 06:08:56
Tagged date














: UTC 2014-01-10 06:08:56

Shared By Sbyky