Pitbull Ft. Chris Brown – Fun [Music Video] 1080p [Sbyky]


Size : 93.79 MiB (98342373 Bytes)

General
Complete name













: Pitbull Ft. Chris Brown - Fun [Music Video] 1080p [Sbyky].mp4
Format
















: MPEG-4
Format profile












: Base Media
Codec ID















: isom
File size















: 93.8 MiB
Duration















: 4mn 1s
Overall bit rate mode









: Variable
Overall bit rate











: 3 262 Kbps
Encoded date













: UTC 2015-06-20 04:03:16
Tagged date














: UTC 2015-06-20 04:03:16

Video
ID


















: 1
Format
















: AVC
Format/Info














: Advanced Video Codec
Format profile












: [email protected]/* */
Format settings, CABAC








: Yes
Format settings, ReFrames







: 3 frames
Codec ID















: avc1
Codec ID/Info













: Advanced Video Coding
Duration















: 4mn 1s
Bit rate















: 3 133 Kbps
Width

















: 1 920 pixels
Height
















: 1 080 pixels
Display aspect ratio









: 16:9
Frame rate mode












: Variable
Frame rate














: 23.976 fps
Minimum frame rate










: 23.974 fps
Maximum frame rate










: 23.981 fps
Color space














: YUV
Chroma subsampling










: 4:2:0
Bit depth















: 8 bits
Scan type















: Progressive
Bits/(Pixel*Frame)










: 0.063
Stream size














: 90.1 MiB (96%)
Encoded date













: UTC 2015-06-20 04:03:16
Tagged date














: UTC 2015-06-20 04:03:16

Audio
ID


















: 2
Format
















: AAC
Format/Info














: Advanced Audio Codec
Format profile












: LC
Codec ID















: 40
Duration















: 4mn 1s
Bit rate mode













: Variable
Bit rate















: 126 Kbps
Channel(s)














: 2 channels
Channel positions











: Front: L R
Sampling rate













: 44.1 KHz
Compression mode











: Lossy
Stream size














: 3.61 MiB (4%)
Encoded date













: UTC 2015-06-20 03:55:30
Tagged date














: UTC 2015-06-20 03:55:30

Shared By Sbyky
[IMG]http://yuq.me/users/18/139/0aq32UMZvX.gif[/IMG]
[IMG]http://yuq.me/users/18/139/bQg62viaEG.gif[/IMG]