Pitbull ft.Don Miguelo – Como Yo Le Doy (2014.Latin)


Size : 100.89 MiB (105788614 Bytes)

PITBULL ft.DON MIGUELO - COMO YO LE DOY



MPEG4 MUSIC VID

http://gifyu.com/images/Pitbullb5060.png


General
Complete name













: Pitbull ft. Don Miguelo - Como Yo Le Doy
Format
















: MPEG-4
Format profile












: Base Media
Codec ID















: isom
File size















: 101 MiB
Duration















: 4mn 16s
Overall bit rate











: 3 294 Kbps
Music Vid name












: Como Yo Le Doy
Performer















: Pitbull ft. Don Miguelo
Genre

















: Latin Pop
ContentType














: Music Video
Recorded date













: 2014
Copyright















: Pitbull
Cover

















: Yes
Rating
















: ***
Make

















: MeRaDil
oday

















: 03-10-2014 USA
aurl

















: http://www.pitbullmusic.com/us
relt

















: USA - october 3 - 2014
Part_ID
















: Como Yo Le Doy

Video
ID


















: 1
Format
















: AVC
Format/Info














: Advanced Video Codec
Format profile












: [email protected]/* */
Format settings, CABAC








: Yes
Format settings, ReFrames







: 2 frames
Codec ID















: avc1
Codec ID/Info













: Advanced Video Coding
Duration















: 4mn 16s
Bit rate















: 3 031 Kbps
Width

















: 1 920 pixels
Height
















: 1 080 pixels
Display aspect ratio









: 16:9
Frame rate mode












: Variable
Frame rate














: 23.976 fps
Minimum frame rate










: 23.974 fps
Maximum frame rate










: 23.981 fps
Color space














: YUV
Chroma subsampling










: 4:2:0
Bit depth















: 8 bits
Scan type















: Progressive
Bits/(Pixel*Frame)










: 0.061
Stream size














: 92.8 MiB (92%)

Audio
ID


















: 2
Format
















: AAC
Format/Info














: Advanced Audio Codec
Format profile












: LC
Codec ID















: 40
Duration















: 4mn 16s
Bit rate mode













: Constant
Bit rate















: 256 Kbps
Channel(s)














: 2 channels
Channel positions











: Front: L R
Sampling rate













: 44.1 KHz
Compression mode











: Lossy
Stream size














: 7.84 MiB (8%)
https://thepiratebay.se/user/MeRaDil

Pitbull * Don Miguelo * Latin * Spanish * Promo

:)