Pitch S01E02 1080p WEB-DL HEVC DD5.1 x265


Size : 597.82 MiB (626862539 Bytes)

Source:Pitch S01E02 1080p WEB-DL DD5.1 H264-GoApe (1.75 GB)


Complete name: Pitch.S01E02.1080p.WEB.DL.HEVC.DD5.1.x265.mkv
Format
















: Matroska
Format version












: Version 4 / Version 2
File size















: 598 MiB
Duration















: 45mn 20s
Overall bit rate











: 1 843 Kbps
Writing application










: Lavf57.25.100

Video

ID


















: 1
Format
















: V_MPEGH/ISO/HEVC
Duration















: 45mn 20s
Bit rate















: 1 423 Kbps
Width

















: 1 916 pixels
Height
















: 1 076 pixels
Display aspect ratio









: 16:9
Frame rate














: 23.976 fps
Bits/(Pixel*Frame)










: 0.029
Stream size














: 461 MiB (77%)
Default
















: Yes
Forced
















: No
DURATION















: 00:45:20.660000000

Audio

ID


















: 2
Format
















: AC-3
Format/Info














: Audio Coding 3
Mode extension












: CM (complete main)
Format settings, Endianness






: Big
Codec ID















: A_AC3
Duration















: 45mn 20s
Bit rate mode













: Constant
Bit rate















: 384 Kbps
Channel(s)














: 6 channels
Channel positions











: Front: L C R, Side: L R, LFE
Sampling rate













: 48.0 KHz
Bit depth















: 16 bits
Compression mode











: Lossy
Stream size














: 125 MiB (21%)
Writing library












: Lavc57.24.102 ac3
Default
















: Yes
Forced
















: Yes
DURATION















: 00:45:20.672000000