Piya Tore Bina – Badshah – The Don 2016 – Jeet, Nusrat Faria, S


Size : 93.67 MiB (98216299 Bytes)

==================================================================
General
Complete name






: Piya Tore Bina - Badshah - The Don
2016 - Jeet, Nusrat Faria, Shraddha Das - Full HD 1080p.mkv
Format










: Matroska
Format version






: Version 4 / Version 2
File size








: 93.7 MiB
Duration









: 4mn 40s
Overall bit rate mode


: Variable
Overall bit rate





: 2 797 Kbps
==================================================================
Video
ID












: 1
Format










: AVC
Format/Info







: Advanced Video Codec
Format profile






: [email protected]/* */
Format settings, CABAC


: Yes
Format settings, ReFrames
: 3 frames
Codec ID









: V_MPEG4/ISO/AVC
Duration









: 4mn 40s
Bit rate mode






: Variable
Bit rate









: 2 702 Kbps
Maximum bit rate





: 40.0 Mbps
Width










: 1 912 pixels
Height










: 816 pixels
Display aspect ratio



: 2.35:1
Frame rate mode





: Constant
Frame rate








: 24.000 fps
Color space







: YUV
Chroma subsampling




: 4:2:0
Bit depth








: 8 bits
Scan type








: Progressive
Bits/(Pixel*Frame)




: 0.072
Stream size







: 90.4 MiB (96%)
Title










: = __ TaRa ~ DDR __ =
Writing library





: x264 core 146 r2538 121396c
Language









: Bengali
Default









: Yes
Forced










: No
===================================================================
Audio
ID












: 2
Format










: AAC
Format/Info







: Advanced Audio Codec
Format profile






: LC
Codec ID









: A_AAC
Duration









: 4mn 40s
Bit rate









: 96.0 Kbps
Channel(s)








: 2 channels
Channel positions




: Front: L R
Sampling rate






: 44.1 KHz
Frame rate








: 43.066 fps (1024 spf)
Compression mode





: Lossy
Delay relative to video

: 10ms
Stream size







: 3.21 MiB (3%)
Title










: = __ TaRa ~ DDR __ =
Language









: Bengali
Default









: Yes
Forced










: No
=================================================================== http://imgur.com/xEH4I6a