Planes (2013) [3D] [HSBS] [Greek Audio]


Size : 1.66 GiB (1783643298 Bytes)

General

Complete name













: Planes.2013.1080p.3D.HSBS.BluRay.x264.GreekAudio.mkv
Format
















: Matroska
Format version












: Version 4 / Version 2
File size















: 1.66 GiB
Duration















: 1h 31mn
Overall bit rate











: 2 596 Kbps
Encoded date













: UTC 2014-04-22 18:28:20
Writing application










: mkvmerge v6.8.0 ('Theme for Great Cities') 64bit built on Mar
2 2014 21:34:26
Writing library












: libebml v1.3.0 + libmatroska v1.4.1

Video
ID


















: 1
Format
















: AVC
Format/Info














: Advanced Video Codec
Format profile












: [email protected]/* */
Format settings, CABAC








: Yes
Format settings, ReFrames







: 4 frames
Codec ID















: V_MPEG4/ISO/AVC
Duration















: 1h 31mn
Bit rate















: 2 151 Kbps
Width

















: 1 920 pixels
Height
















: 1 080 pixels
Display aspect ratio









: 16:9
Frame rate mode












: Constant
Frame rate














: 23.976 fps
Color space














: YUV
Chroma subsampling










: 4:2:0
Bit depth















: 8 bits
Scan type















: Progressive
Bits/(Pixel*Frame)










: 0.043
Stream size














: 1.34 GiB (81%)
Writing library












: x264 core 142 r2409 d6b4e63
Encoding settings











: cabac=1 / ref=4 / deblock=1:-1:-1 / analyse=0x3:0x133 / me=umh / subme=9 / psy=1 / psy_rd=1.00:0.15 / mixed_ref=1 / me_range=24 / chroma_me=1 / trellis=2 / 8x8dct=1 / cqm=0 / deadzone=21,11 / fast_pskip=0 / chroma_qp_offset=-3 / threads=48 / lookahead_threads=4 / sliced_threads=0 / nr=0 / decimate=1 / interlaced=0 / bluray_compat=0 / constrained_intra=0 / bframes=3 / b_pyramid=2 / b_adapt=2 / b_bias=0 / direct=3 / weightb=1 / open_gop=0 / weightp=2 / keyint=250 / keyint_min=23 / scenecut=40 / intra_refresh=0 / rc_lookahead=60 / rc=2pass / mbtree=1 / bitrate=2151 / ratetol=1.0 / qcomp=0.60 / qpmin=0 / qpmax=69 / qpstep=4 / cplxblur=20.0 / qblur=0.5 / vbv_maxrate=31250 / vbv_bufsize=31250 / nal_hrd=none / filler=0 / ip_ratio=1.40 / aq=1:1.00
Default
















: Yes
Forced
















: No
Color primaries












: BT.709
Matrix coefficients










: BT.709

Audio
ID


















: 2
Format
















: AC-3
Format/Info














: Audio Coding 3
Mode extension












: CM (complete main)
Format settings, Endianness






: Big
Codec ID















: A_AC3
Duration















: 1h 31mn
Bit rate mode













: Constant
Bit rate















: 448 Kbps
Channel(s)














: 6 channels
Channel positions











: Front: L C R, Side: L R, LFE
Sampling rate













: 48.0 KHz
Bit depth















: 16 bits
Compression mode











: Lossy
Delay relative to video








: 20ms
Stream size














: 294 MiB (17%)
Title

















: Planes [2013] 1080p BluRay AAC x264[Greek]-tomcat12[ETRG]
Language















: Greek
Default
















: Yes
Forced
















: No