Planes.Fire.and.Rescue.3D.2014.1080p.BRRip.HOU.x264.Hun.Eng


Size : 7.12 GiB (7644226619 Bytes)

Planes.Fire.and.Rescue.3D.2014.1080p.BRRip.HOU.x264.Hun.Eng
http://www.imdb.com/title/tt2980706/

General
Unique ID















: 194477117579231969988852953753090873632 (0x924EEE304B10499E92AD083B47615920)
Complete name













: F:lanes.Fire.and.Rescue.3D.2014.1080p.BRRip.HOU.x264.Hun.EngPlanes Fire and Rescue 3D (2014) HOU 1080p.mkv
Format
















: Matroska
Format version












: Version 4 / Version 2
File size















: 7.12 GiB
Duration















: 1h 23mn
Overall bit rate











: 12.2 Mbps
Encoded date













: UTC 2014-11-25 07:48:43
Writing application










: mkvmerge v7.2.0 ('On Every Street') 64bit built on Sep 13 2014 15:52:10
Writing library












: libebml v1.3.0 + libmatroska v1.4.1
DURATION















: 01:22:38.537000000
NUMBER_OF_FRAMES











: 2794
NUMBER_OF_BYTES












: 16461513
_STATISTICS_WRITING_APP








: mkvmerge v7.2.0 ('On Every Street') 64bit built on Sep 13 2014 15:52:10
_STATISTICS_WRITING_DATE_UTC





: 2014-11-25 07:48:43
_STATISTICS_TAGS











: BPS DURATION NUMBER_OF_FRAMES NUMBER_OF_BYTES

Video
ID


















: 1
Format
















: AVC
Format/Info














: Advanced Video Codec
Format profile












: [email protected]/* */
Format settings, CABAC








: Yes
Format settings, ReFrames







: 4 frames
Codec ID















: V_MPEG4/ISO/AVC
Duration















: 1h 23mn
Bit rate















: 10.0 Mbps
Width

















: 1 920 pixels
Height
















: 1 080 pixels
Display aspect ratio









: 16:9
Frame rate mode












: Constant
Frame rate














: 23.976 fps
Color space














: YUV
Chroma subsampling










: 4:2:0
Bit depth















: 8 bits
Scan type















: Progressive
Bits/(Pixel*Frame)










: 0.202
Stream size














: 5.87 GiB (82%)
Title

















: Planes Fire and Rescue 3D (2014) HOU 1080p
Writing library












: x264 core 133 r2334kMod a3ac64b
Encoding settings











: cabac=1 / ref=4 / deblock=1:-3:-3 / analyse=0x3:0x133 / me=umh / subme=10 / psy=1 / fade_compensate=0.00 / psy_rd=0.70:0.00 / mixed_ref=1 / me_range=24 / chroma_me=1 / trellis=2 / 8x8dct=1 / cqm=0 / deadzone=21,11 / fast_pskip=0 / chroma_qp_offset=-2 / threads=6 / lookahead_threads=1 / sliced_threads=0 / nr=0 / decimate=0 / interlaced=0 / bluray_compat=0 / constrained_intra=0 / bframes=8 / b_pyramid=2 / b_adapt=2 / b_bias=0 / direct=3 / weightb=1 / open_gop=0 / weightp=2 / keyint=250 / keyint_min=23 / scenecut=40 / intra_refresh=0 / rc=crf / mbtree=0 / crf=15.8000 / qcomp=0.65 / qpmin=0 / qpmax=69 / qpstep=4 / frame-packing=4 / ip_ratio=1.40 / pb_ratio=1.20 / aq=1:1.00 / zones=6886,7111,crf=14/14211,18109,crf=14/54408,55562,crf=14/56853,58736,crf=14/60756,60985,crf=14/65283,68030,crf=14/78402,79122,crf=14/84062,84200,crf=14/87126,99734,crf=14
Default
















: Yes
Forced
















: No
DURATION















: 01:23:36.470000000
NUMBER_OF_FRAMES











: 120275
NUMBER_OF_BYTES












: 6421026544
_STATISTICS_WRITING_APP








: mkvmerge v7.2.0 ('On Every Street') 64bit built on Sep 13 2014 15:52:10
_STATISTICS_WRITING_DATE_UTC





: 2014-11-25 07:48:43
_STATISTICS_TAGS











: BPS DURATION NUMBER_OF_FRAMES NUMBER_OF_BYTES

Audio #1
ID


















: 2
Format
















: AC-3
Format/Info














: Audio Coding 3
Mode extension












: CM (complete main)
Format settings, Endianness






: Big
Codec ID















: A_AC3
Duration















: 1h 23mn
Bit rate mode













: Constant
Bit rate















: 384 Kbps
Channel(s)














: 6 channels
Channel positions











: Front: L C R, Side: L R, LFE
Sampling rate













: 48.0 KHz
Bit depth















: 16 bits
Compression mode











: Lossy
Stream size














: 230 MiB (3%)
Title

















: 5.1
Language















: Hungarian
Default
















: Yes
Forced
















: No

Audio #2
ID


















: 3
Format
















: DTS
Format/Info














: Digital Theater Systems
Mode

















: 16
Format settings, Endianness






: Big
Codec ID















: A_DTS
Duration















: 1h 23mn
Bit rate mode













: Constant
Bit rate















: 1 509 Kbps
Channel(s)














: 6 channels
Channel positions











: Front: L C R, Side: L R, LFE
Sampling rate













: 48.0 KHz
Bit depth















: 24 bits
Compression mode











: Lossy
Stream size














: 903 MiB (12%)
Title

















: DTS
Language















: English
Default
















: No
Forced
















: No

Text #1
ID


















: 4
Format
















: UTF-8
Codec ID















: S_TEXT/UTF8
Codec ID/Info













: UTF-8 Plain Text
Title

















: 2D forced
Language















: Hungarian
Default
















: No
Forced
















: No

Text #2
ID


















: 5
Format
















: PGS
Muxing mode














: zlib
Codec ID















: S_HDMV/PGS
Codec ID/Info













: The same subtitle format used on BDs/HD-DVDs
Title

















: 3D forced
Language















: Hungarian
Default
















: No
Forced
















: No

Text #3
ID


















: 6
Format
















: UTF-8
Codec ID















: S_TEXT/UTF8
Codec ID/Info













: UTF-8 Plain Text
Title

















: 2D full
Language















: Hungarian
Default
















: No
Forced
















: No

Text #4
ID


















: 7
Format
















: PGS
Muxing mode














: zlib
Codec ID















: S_HDMV/PGS
Codec ID/Info













: The same subtitle format used on BDs/HD-DVDs
Title

















: 3D full
Language















: Hungarian
Default
















: No
Forced
















: No

Text #5
ID


















: 8
Format
















: UTF-8
Codec ID















: S_TEXT/UTF8
Codec ID/Info













: UTF-8 Plain Text
Title

















: 2D full
Language















: English
Default
















: No
Forced
















: No

Text #6
ID


















: 9
Format
















: PGS
Muxing mode














: zlib
Codec ID















: S_HDMV/PGS
Codec ID/Info













: The same subtitle format used on BDs/HD-DVDs
Title

















: 3D full
Language















: English
Default
















: No
Forced
















: No
http://www.port.hu/repcsik:_a_mentoalakulat_planes:_fire_&_rescue/pls/fi/films.film_page?i_where=2&i_film_id=147601&i_city_id=-1&i_county_id=-1&i_topic_id=2