Please.Like.Me.S04E04.1080p.WEB-DL.H264-KAZ


Size : 972.77 MiB (1020026031 Bytes)

Video
ID


















: 1
Format
















: AVC
Format/Info














: Advanced Video Codec
Format profile












: [email protected]/* */
Format settings, CABAC








: Yes
Format settings, ReFrames







: 4 frames
Codec ID















: V_MPEG4/ISO/AVC
Duration















: 25 min 2 s
Bit rate















: 5 274 kb/s
Width

















: 1 912 pixels
Height
















: 1 072 pixels
Display aspect ratio









: 16:9
Frame rate mode












: Constant
Frame rate














: 25.000 FPS
Color space














: YUV
Chroma subsampling










: 4:2:0
Bit depth















: 8 bits
Scan type















: Progressive
Bits/(Pixel*Frame)










: 0.103
Stream size














: 944 MiB (97%)
Title

















: Video Track
Language















: English
Default
















: Yes
Forced
















: No
Color range














: Limited
Color primaries












: BT.709
Transfer characteristics







: BT.709
Matrix coefficients










: BT.709

Audio
ID


















: 2
Format
















: AAC
Format/Info














: Advanced Audio Codec
Format profile












: LC
Codec ID















: A_AAC
Duration















: 25 min 2 s
Bit rate















: 156 kb/s
Channel(s)














: 2 channels
Channel positions











: Front: L R
Sampling rate













: 48.0 kHz
Frame rate














: 46.875 FPS (1024 spf)
Compression mode











: Lossy
Stream size














: 28.0 MiB (3%)
Title

















: Audio Track
Language















: English
Default
















: Yes
Forced
















: No