PRIEST,Bluray 3D [email protected]/* */,Half SBS (LiG)


Size : 5.74 GiB (6163903162 Bytes)


Priest
(2011) MKV 3d

PLOT:
A priest disobeys church law to track down the vampires who kidnapped his niece.

INFO:
Format












: Matroska
Format version








: Version 2
File size











: 5.74 GiB
Duration











: 1h 27mn
Overall bit rate







: 9 398 Kbps
Movie name










: PRIEST_2011_3D
Writing library








: libebml v0.7.8 + libmatroska v0.8.1

Video
ID














: 1
Format












: AVC
Format/Info










: Advanced Video Codec
Format profile








: [email protected]/* */
Format settings, CABAC




: Yes
Format settings, ReFrames



: 2 frames
Codec ID











: V_MPEG4/ISO/AVC
Duration











: 1h 27mn
Bit rate











: 8 571 Kbps
Width













: 1 920 pixels
Height












: 1 080 pixels
Display aspect ratio





: 16:9
Frame rate










: 23.976 fps
Color space










: YUV
Chroma subsampling






: 4:2:0
Bit depth











: 8 bits
Scan type











: Progressive
Bits/(Pixel*Frame)






: 0.172
Stream size










: 5.24 GiB (91%)
Writing library








: x264 core
Color primaries








: BT.709-5, BT.1361, IEC 61966-2-4, SMPTE RP177
Transfer characteristics



: BT.709-5, BT.1361
Matrix coefficients






: BT.709-5, BT.1361, IEC 61966-2-4 709, SMPTE RP177

Audio
ID














: 2
Format












: AC-3
Format/Info










: Audio Coding 3
Mode extension








: CM (complete main)
Codec ID











: A_AC3
Duration











: 1h 27mn
Bit rate mode









: Constant
Bit rate











: 640 Kbps
Channel(s)










: 6 channels
Channel positions







: Front: L C R, Side: L R, LFE
Sampling rate









: 48.0 KHz
Bit depth











: 16 bits
Compression mode







: Lossy
Stream size










: 400 MiB (7%)