Prince Royce – Culpa al Corazón (2016 Latin)


Size : 83.97 MiB (88048129 Bytes)

PRINCE ROYCE - CULPA AL CORAZÓN

http://gifyu.com/images/culpa-1.png
http://gifyu.com/images/culpa.png


MEDIA INFO
General
Prince Royce - Culpa al Corazón
Format
















: MPEG-4
Format profile












: Base Media
Codec ID















: isom
File size















: 84.0 MiB
Duration















: 4mn 52s
Overall bit rate











: 2 406 Kbps
MusicVid name













: Culpa al Corazón
Performer















: Prince Royce
Genre

















: Latin Pop
ContentType














: Music Video
Recorded date













: 2016
Writing application










: Lavf56.32.100 / MeRaDil
Cover

















: Yes
Release date













: USA - january 22 - 2016

Video
ID


















: 1
Format
















: AVC
Format/Info














: Advanced Video Codec
Format profile












: [email protected]/* */
Format settings, CABAC








: Yes
Format settings, ReFrames







: 3 frames
Codec ID















: avc1
Codec ID/Info













: Advanced Video Coding
Duration















: 4mn 52s
Bit rate















: 2 141 Kbps
Width

















: 1 920 pixels
Height
















: 1 080 pixels
Display aspect ratio









: 16:9
Frame rate mode












: Variable
Frame rate














: 23.976 fps
Stream size














: 74.7 MiB (89%)

Audio
ID


















: 2
Format
















: AAC
Format/Info














: Advanced Audio Codec
Format profile












: LC
Codec ID















: 40
Duration















: 4mn 52s
Bit rate mode













: Constant
Bit rate















: 256 Kbps
Channel(s)














: 2 channels
Channel positions











: Front: L R
Sampling rate













: 44.1 KHz
Compression mode











: Lossy
Stream size














: 8.94 MiB (11%)