Pulse – [Pink Floyd – Concert] (1994) – DvdRip x264 – [=Faith=]


Size : 6.93 GiB (7441511649 Bytes)

Title: Pulse
Genre: Progressive Rock
Concert Footage : Oct. 20 1994
Released on Dvd: July 10 2006
Band: Pink Floyd - David Gilmour, Nick Mason, Richard Wright
Length: 145 min
Screen: Full Screen
Audio : Stereo or 5.1 Surround
IMDB Rating: 9.3
Source: DVD - EMI (Pal)


This landmark DVD features the first ever film of Pink Floyd playing the band's seminal album, The Dark Side of the Moon, live in concert. The set documents the 1994 Division Bell tour and was filmed at London's Earls Court during a record-breaking 14-night residency. The two-disc release contains the full concert performance with rare backstage footage and previously unseen extras making the collection a must-have for Pink Floyd fans.


Personnel:

David Gilmour: guitars, lap steel guitar, talk box, vocals
Nick Mason: drums, gong
Richard Wright: keyboards, vocals

with

Sam Brown: backing vocals
Jon Carin: keyboards, vocals, programming
Claudia Fontaine: backing vocals
Durga McBroom: backing vocals
Dick Parry: saxophones
Guy Pratt: bass, vocals
Tim Renwick: guitars, backing vocals
Gary Wallis: percussion


Track List:

Disc One:
"Shine On You Crazy Diamond" (Concert version)
"Learning to Fly"
"High Hopes"
"Take It Back"
"Coming Back to Life"
"Sorrow"
"Keep Talking"
"Another Brick in the Wall (Part 2)"
"One of These Days"

Disc Two:
"Speak to Me"
"Breathe"
"On the Run"
"Time"
"The Great Gig in the Sky"
"Money"
"Us and Them"
"Any Colour You Like"
"Brain Damage"
"Eclipse"
"Wish You Were Here"
"Comfortably Numb"
"Run Like Hell"


General:

Complete name : Pulse - Disk I.m4v
Format : MPEG-4
Format profile : Base Media / Version 2
Codec ID : mp42
File size : 3.50 GiB
Duration : 1h 12mn
Overall bit rate : 6 876 Kbps
Encoded date : UTC 2015-06-08 20:45:53
Tagged date : UTC 2015-06-08 21:40:49
Writing application : HandBrake 0.9.9

Video:

ID : 1
Format : AVC
Format/Info : Advanced Video Codec
Format profile : [email protected]/* */
Format settings, CABAC : Yes
Format settings, ReFrames : 5 frames
Codec ID : avc1
Codec ID/Info : Advanced Video Coding
Duration : 1h 12mn
Bit rate : 5 913 Kbps
Width : 720 pixels
Height : 576 pixels
Display aspect ratio : 4:3
Original display aspect ratio : 4:3
Frame rate mode : Constant
Frame rate : 25.000 fps
Standard : PAL
Color space : YUV
Chroma subsampling : 4:2:0
Bit depth : 8 bits
Scan type : Progressive
Bits/(Pixel*Frame) : 0.570
Stream size : 3.01 GiB (86%)
Writing library : x264 core 130 r2273 b3065e6
Encoding settings : (see nfo file)
Encoded date : UTC 2015-06-08 20:45:53
Tagged date : UTC 2015-06-08 21:40:49
Color primaries : BT.601 PAL
Transfer characteristics : BT.709
Matrix coefficients : BT.601


Audio 1:

ID : 2
Format : AC-3
Format/Info : Audio Coding 3
Mode extension : CM (complete main)
Format settings, Endianness : Big
Codec ID : ac-3
Duration : 1h 12mn
Bit rate mode : Constant
Bit rate : 320 Kbps
Channel(s) : 2 channels
Channel positions : Front: L R
Sampling rate : 48.0 KHz
Bit depth : 16 bits
Compression mode : Lossy
Stream size : 167 MiB (5%)
Language : English


Audio 2:

ID : 3
Format : AC-3
Format/Info : Audio Coding 3
Mode extension : CM (complete main)
Format settings, Endianness : Big
Codec ID : ac-3
Duration : 1h 12mn
Bit rate mode : Constant
Bit rate : 640 Kbps
Channel(s) : 6 channels
Channel positions : Front: L C R, Side: L R, LFE
Sampling rate : 48.0 KHz
Bit depth : 16 bits
Compression mode : Lossy
Stream size : 333 MiB (9%)
Language : English

*See files for Disk II info (encoded the same settings)*