Quantico S02E08 ODENVY 720p AMZN WEBRip HEVC 2CH x265


Size : 327.57 MiB (343478887 Bytes)

Source:Quantico S02E08 ODENVY 1080p AMZN WEBRip DD5.1 x264-DRACULA (2.70GB)


Complete name: Quantico.S02E08.ODENVY.720p.AMZN.WEBRip.HEVC.2CH.x265.mkv
FFormat
















: Matroska
Format version












: Version 4 / Version 2
File size















: 328 MiB
Duration















: 43mn 2s
Overall bit rate











: 1 064 Kbps
Writing application










: Lavf57.25.100

Video

ID


















: 1
Codec ID















: V_MPEGH/ISO/HEVC
Duration















: 43mn 2s
Bit rate















: 851 Kbps
Width

















: 1 274 pixels
Height
















: 720 pixels
Display aspect ratio









: 16:9
Frame rate














: 25.000 fps
Bits/(Pixel*Frame)










: 0.037
Stream size














: 262 MiB (80%)
Default
















: Yes
Forced
















: No
DURATION















: 00:43:02.611000000

Audio

ID


















: 2
Format
















: AC-3
Format/Info














: Audio Coding 3
Mode extension












: CM (complete main)
Format settings, Endianness






: Big
Codec ID















: A_AC3
Duration















: 43mn 2s
Bit rate mode













: Constant
Bit rate















: 192 Kbps
Channel(s)














: 2 channels
Channel positions











: Front: L R
Sampling rate













: 48.0 KHz
Bit depth















: 16 bits
Compression mode











: Lossy
Stream size














: 59.1 MiB (18%)
Writing library












: Lavc57.24.102 ac3
Default
















: Yes
Forced
















: No
DURATION















: 00:43:02.815000000

Text

ID


















: 3
Codec ID















: S_TEXT/ASS
Language















: English