Rachel Platten – Fight Song (2015.Pop)

Magnet Download Torrent Download

Size : 76.83 MiB (80563171 Bytes)

RACHEL PLATTEN - FIGHT SONG

http://ultraimg.com/images/fightsong.png
http://ultraimg.com/images/fightsong1.png


General
Rachel Platten - Fight Song
Format
















: MPEG-4
Format profile












: Base Media
Codec ID















: isom
File size















: 76.8 MiB
Duration















: 3mn 25s
Overall bit rate











: 3 141 Kbps
MusicVid name













: Fight Song
Performer















: Rachel Platten
Genre

















: Pop
ContentType














: Music Video
Recorded date













: 2015
Rating
















: ***
Make

















: MeRaDil
Release
















: USA - may 19 - 2015

Video
ID


















: 1
Format
















: AVC
Format/Info














: Advanced Video Codec
Format profile












: [email protected]/* */
Format settings, CABAC








: Yes
Format settings, ReFrames







: 2 frames
Codec ID















: avc1
Codec ID/Info













: Advanced Video Coding
Duration















: 3mn 25s
Bit rate















: 2 878 Kbps
Width

















: 1 920 pixels
Height
















: 1 080 pixels
Display aspect ratio









: 16:9
Frame rate mode












: Variable
Frame rate














: 23.976 fps
Minimum frame rate










: 23.974 fps
Maximum frame rate










: 23.981 fps
Color space














: YUV
Chroma subsampling










: 4:2:0
Bit depth















: 8 bits
Scan type















: Progressive
Bits/(Pixel*Frame)










: 0.058
Stream size














: 70.4 MiB (92%)

Audio
ID


















: 2
Format
















: AAC
Format/Info














: Advanced Audio Codec
Format profile












: LC
Codec ID















: 40
Duration















: 3mn 25s
Bit rate mode













: Constant
Bit rate















: 256 Kbps
Channel(s)














: 2 channels
Channel positions











: Front: L R
Sampling rate













: 44.1 KHz
Compression mode











: Lossy
Stream size














: 6.26 MiB (8%)
https://thepiratebay.se/user/MeRaDil

Rachel Platten * Pop * Promo