Real.Time.With.Bill.Maher.2016.11.11.720p.WEBRip.H.264

Magnet Download Torrent Download

Size : 1.77 GiB (1904778410 Bytes)

Real.Time.With.Bill.Maher.2016.11.11.720p.WEBRip.AAC2.0.H.264-doosh.mkv


Video
ID


















: 1
Format
















: AVC
Format/Info














: Advanced Video Codec
Format profile












: [email protected]/* */
Format settings, CABAC








: Yes
Format settings, ReFrames







: 4 frames
Codec ID















: V_MPEG4/ISO/AVC
Duration















: 56mn 22s
Bit rate mode













: Constant
Bit rate















: 4 372 Kbps
Width

















: 1 280 pixels
Height
















: 720 pixels
Display aspect ratio









: 16:9
Frame rate mode












: Constant
Frame rate














: 59.940 (60000/1001) fps
Color space














: YUV
Chroma subsampling










: 4:2:0
Bit depth















: 8 bits
Scan type















: Progressive
Bits/(Pixel*Frame)










: 0.079
Stream size














: 1.72 GiB (97%)
Default
















: Yes
Forced
















: No

Audio
Format
















: AAC
Bit rate















: 125 Kbps
Channel(s)














: 2 channels
Sampling rate













: 48.0 KHz

Text
Format
















: UTF-8
Stream size














: 122 KiB (0%)
Language















: English