REHAB.(Amy.Winehouse).2006.HQ.1080p.x264.AAC.[FrOnkY]


Size : 176.43 MiB (185004934 Bytes)

REHAB.(Amy.Winehouse).2006.HQ.1080p.x264.AAC.[FrOnkY].mp4


Format
















: MPEG-4
Format profile












: Base Media
Codec ID















: isom
File size















: 176 MiB
Duration















: 3mn 33s
Overall bit rate mode









: Variable
Overall bit rate











: 6 937 Kbps

Video
ID


















: 1
Format
















: AVC
Format/Info














: Advanced Video Codec
Format profile












: High L4.1
Format settings, CABAC








: Yes
Format settings, ReFrames







: 5 frames
Duration















: 3mn 33s
Bit rate















: 6 666 Kbps
Maximum bit rate











: 12.7 Mbps
Width

















: 1 920 pixels
Height
















: 808 pixels
Display aspect ratio









: 2.40:1
Frame rate mode












: Constant
Frame rate














: 25.000 fps
Color space














: YUV
Chroma subsampling










: 4:2:0
Bit depth















: 8 bits
Scan type















: Progressive
Bits/(Pixel*Frame)










: 0.172
Stream size














: 170 MiB (96%)
Writing library












: x264 core 148 r2705

Audio
ID


















: 2
Format
















: AAC
Format/Info














: Advanced Audio Codec
Format profile












: LC
Codec ID















: 40
Duration















: 3mn 33s
Bit rate mode













: Variable
Bit rate















: 252 Kbps
Maximum bit rate











: 284 Kbps
Channel(s)














: 2 channels
Channel positions











: Front: L R
Sampling rate













: 48.0 KHz
Compression mode











: Lossy
Stream size














: 6.41 MiB (4%)

http://i.imgur.com/iOrYe7d.jpg