Relíquias.da.Morte.Parte.2.Dublado.1080p-DEJAVUBR


Size : 1.97 GiB (2115959480 Bytes)

Harry Potter e as Relíquias da Morte - Parte 2 (2011)







1080p 3D DUBLADO - PT-BR - DEJAVUBR


=======================================================
==== w w w . t h e p i r a t e f i l m e s . c o m ====
=======================================================

Harry Potter (Daniel Radcliffe) e seus amigos Rony Weasley (Rupert Grint) e Hermione Granger (Emma Watson) seguem à procura das horcruxes. O objetivo do trio é encontrá-las e, em seguida, destruí-las, de forma a eliminar lorde Voldemort (Ralph Fiennes) de uma vez por todas. Com a ajuda do duende Grampo (Warwick Davis), eles entram no banco Gringotes de forma a invadir o cofre de Bellatrix Lestrange (Helena Bonham Carter). De lá retornam ao castelo de Hogwarts, onde precisam encontrar mais uma horcrux. Paralelamente, Voldemort prepara o ataque definitivo ao castelo.


Lançamento: 15 de julho de 2011 (2h 10min)
Dirigido por: David Yates
Com: Daniel Radcliffe, Rupert Grint, Emma Watson mais
Gênero: Fantasia , Aventura
Nacionalidade: EUA , Reino Unido
Formato: MP4
Qualidade: 1080p (Full HD) 3D(HSBS)
Idioma: PT-BR (Audio 5.1)
OBS: Filmes 3D só funcionam em TVs ou Monitores 3D


PARA MAIS FILMES VISITEM:
=======================================================
==== w w w . t h e p i r a t e f i l m e s . c o m ====
=======================================================

AO FIM DO DOWNLOAD FIQUE SEMEANDO/ENVIANDO, PARA QUE EU POSSA ENVIAR OUTROS FILMES COM QUALIDADE! Obrigado!




Video


ID


















: 1
Format
















: AVC
Format/Info














: Advanced Video Codec
Format profile












: [email protected]/* */
Format settings, CABAC








: Yes
Format settings, ReFrames







: 5 frames
Codec ID















: avc1
Codec ID/Info













: Advanced Video Coding
Duration















: 2h 10mn
Bit rate mode













: Variable
Bit rate















: 2 102 Kbps
Maximum bit rate











: 25.0 Mbps
Width

















: 1 920 pixels
Height
















: 800 pixels
Display aspect ratio









: 2.40:1
Frame rate mode












: Constant
Frame rate














: 23.976 fps
Color space














: YUV
Chroma subsampling










: 4:2:0
Bit depth















: 8 bits
Scan type















: Progressive
Bits/(Pixel*Frame)










: 0.057
Stream size














: 1.91 GiB (95%)


Audio


ID


















: 2
Format
















: AAC
Format/Info














: Advanced Audio Codec
Format profile












: LC
Codec ID















: 40
Duration















: 2h 10mn
Bit rate mode













: Variable
Bit rate















: 96.0 Kbps
Maximum bit rate











: 102 Kbps
Channel(s)














: 2 channels
Channel positions











: Front: L R
Sampling rate













: 48.0 KHz
Compression mode











: Lossy
Stream size














: 89.5 MiB (4%)