Rich Homie Quan – Type Of Way [Music Video] 1080p [Sbyky]


Size : 91.19 MiB (95622135 Bytes)


General
Complete name













: Rich Homie Quan - Type Of Way [Music Video] 1080p [Sbyky].MP4
Format
















: MPEG-4
Format profile












: Base Media
Codec ID















: isom
File size















: 91.2 MiB
Duration















: 4mn 33s
Overall bit rate mode









: Variable
Overall bit rate











: 2 797 Kbps
Encoded date













: UTC 2013-11-12 05:46:28
Tagged date














: UTC 2013-11-12 05:46:28

Video
ID


















: 1
Format
















: AVC
Format/Info














: Advanced Video Codec
Format profile












: [email protected]/* */
Format settings, CABAC








: Yes
Format settings, ReFrames







: 3 frames
Codec ID















: avc1
Codec ID/Info













: Advanced Video Coding
Duration















: 4mn 33s
Duration_LastFrame










: -42ms
Bit rate















: 2 540 Kbps
Width

















: 1 920 pixels
Height
















: 1 080 pixels
Display aspect ratio









: 16:9
Frame rate mode












: Constant
Frame rate














: 23.976 fps
Color space














: YUV
Chroma subsampling










: 4:2:0
Bit depth















: 8 bits
Scan type















: Progressive
Bits/(Pixel*Frame)










: 0.051
Stream size














: 82.8 MiB (91%)
Encoded date













: UTC 2013-11-12 05:46:28
Tagged date














: UTC 2013-11-12 05:46:28

Audio
ID


















: 2
Format
















: AAC
Format/Info














: Advanced Audio Codec
Format profile












: LC
Codec ID















: 40
Duration















: 4mn 33s
Bit rate mode













: Variable
Bit rate















: 254 Kbps
Channel(s)














: 2 channels
Channel positions











: Front: L R
Sampling rate













: 44.1 KHz
Compression mode











: Lossy
Delay relative to video








: 42ms
Stream size














: 8.27 MiB (9%)
Encoded date













: UTC 2013-11-12 05:45:46
Tagged date














: UTC 2013-11-12 05:45:46

Shared By Sbyky