Ricky Martin – Disparo Al Corazon – Lo Nuestro 2015 – 1080p


Size : 93.45 MiB (97985169 Bytes)

Capturas:
General
Complete name








: C:UsersEliasVideosvid3RickyMartin-DisparoAlCorazón(PremioLoNuestro2015)-musicvideos-hq.net.mp4
Format











: MPEG-4
Format profile







: Base Media
Codec ID










: isom
File size










: 93.4 MiB
Duration










: 3mn 53s
Overall bit rate






: 3 364 Kbps
Writing application





: Lavf55.33.100

Video
ID













: 1
Format











: AVC
Format/Info









: Advanced Video Codec
Format profile







: [email protected]/* */
Format settings, CABAC



: Yes
Format settings, ReFrames


: 3 frames
Codec ID










: avc1
Codec ID/Info








: Advanced Video Coding
Duration










: 3mn 52s
Duration_FirstFrame





: -33ms
Bit rate










: 3 232 Kbps
Width












: 1 920 pixels
Height











: 1 080 pixels
Display aspect ratio




: 16:9
Frame rate mode







: Variable
Frame rate









: 29.970 fps
Minimum frame rate





: 29.970 fps
Maximum frame rate





: 29.990 fps
Color space









: YUV
Chroma subsampling





: 4:2:0
Bit depth










: 8 bits
Scan type










: Progressive
Bits/(Pixel*Frame)





: 0.052
Stream size









: 89.7 MiB (96%)

Audio
ID













: 2
Format











: AAC
Format/Info









: Advanced Audio Codec
Format profile







: LC
Codec ID










: 40
Duration










: 3mn 53s
Bit rate mode








: Constant
Bit rate










: 126 Kbps
Channel(s)









: 2 channels
Channel positions






: Front: L R
Sampling rate








: 44.1 KHz
Compression mode






: Lossy
Stream size









: 3.49 MiB (4%)