Rihanna – Bitch Better Have My Money (Explicit) 2015


Size : 181.31 MiB (190117564 Bytes)

RIHANNA - BITCH BETTER HAVE MY MONEY

http://gifyu.com/images/rihanna7a5b2.png
http://gifyu.com/images/BitchMoney.png


General
Rihanna - Bitch Better Have My Money (Explicit)
Format










: MPEG-4
Format profile






: Base Media
Codec ID









: isom
File size








: 181 MiB
Duration









: 7mn 1s
Overall bit rate





: 3 605 Kbps
MusicVid name






: Bitch Better Have My Money
Performer








: Rihanna
Genre










: RnB
ContentType







: Music Video
Recorded date






: 2015
Copyright








: Rihanna
Cover










: Yes
Comment









: Explicit
Rating










: ***
Make











: MeRaDil
Artisturl








: http://www.rihannanow.com
Release









: USA . july 2 . 2015
Part_ID









: Bitch Better Have My Money

Video
ID












: 1
Format










: AVC
Format/Info







: Advanced Video Codec
Format profile






: [email protected]/* */
Format settings, CABAC


: Yes
Format settings, ReFrames
: 2 frames
Codec ID









: avc1
Codec ID/Info






: Advanced Video Coding
Duration









: 7mn 1s
Bit rate









: 3 342 Kbps
Width










: 1 920 pixels
Height










: 1 080 pixels
Display aspect ratio



: 16:9
Frame rate mode





: Variable
Frame rate








: 23.976 fps
Minimum frame rate




: 23.974 fps
Maximum frame rate




: 23.981 fps
Color space







: YUV
Chroma subsampling




: 4:2:0
Bit depth








: 8 bits
Scan type








: Progressive
Bits/(Pixel*Frame)




: 0.067
Stream size







: 168 MiB (93%)

Audio
ID












: 2
Format










: AAC
Format/Info







: Advanced Audio Codec
Format profile






: LC
Codec ID









: 40
Duration









: 7mn 1s
Bit rate mode






: Constant
Bit rate









: 256 Kbps
Channel(s)








: 2 channels
Channel positions




: Front: L R
Sampling rate






: 44.1 KHz
Compression mode





: Lossy
Stream size







: 12.9 MiB (7%)