Rihanna ft. Drake – Work (Explicit) 2016


Size : 165.62 MiB (173663145 Bytes)

RIHANNA ft. DRAKE - WORK

http://gifyu.com/images/Rihanna-Work1.png
http://gifyu.com/images/Rihanna-Work2.png


MEDIA INFO
General
Rihanna ft. Drake - Work (Explicit)
Format
















: MPEG-4
Format profile












: Base Media
Codec ID















: isom (isom/iso2/avc1/mp41)
File size















: 166 MiB
Duration















: 7mn 34s
Overall bit rate











: 3 059 Kbps
MusicVid name













: Work
Album

















: Anti
Performer















: Rihanna ft. Drake
Genre

















: RnB/Dancehall
ContentType














: Music Video
Recorded date













: 2016
Make

















: MeRaDil
Cover

















: Yes
Comment
















: Explicit
Release time













: USA . february 22 . 2016
http://gifyu.com/images/Rihanna-Work.png

Video
ID


















: 1
Format
















: AVC
Format/Info














: Advanced Video Codec
Format profile












: [email protected]/* */
Format settings, CABAC








: Yes
Format settings, ReFrames







: 2 frames
Codec ID















: avc1
Codec ID/Info













: Advanced Video Coding
Duration















: 7mn 34s
Bit rate















: 2 790 Kbps
Width

















: 1 920 pixels
Height
















: 1 080 pixels
Display aspect ratio









: 16:9
Frame rate mode












: Variable
Frame rate














: 23.976 (24000/1001) fps
Color space














: YUV
Chroma subsampling










: 4:2:0
Bit depth















: 8 bits
Scan type















: Progressive
Bits/(Pixel*Frame)










: 0.056
Stream size














: 151 MiB (91%)

Audio
ID


















: 2
Format
















: AAC
Format/Info














: Advanced Audio Codec
Format profile












: LC
Codec ID















: 40
Duration















: 7mn 34s
Bit rate mode













: Constant
Bit rate















: 256 Kbps
Channel(s)














: 2 channels
Channel positions











: Front: L R
Sampling rate













: 44.1 KHz
Frame rate














: 43.066 fps (1024 spf)
Compression mode











: Lossy
Stream size














: 13.9 MiB (8%)