Rio 2 *2014*[mini-HD.1080p.3D.HOU.AC3.BluRay.x264-LEON 345]


Size : 3.97 GiB (4267400238 Bytes)

Film w wersji 3D Over-Under.
Do odtworzenia filmu WYMAGANY odpowiedni sprzęt (TV 3D).
=========================================


Kopia mini-HD 1080p = 3,97 GB

produkcja: USA
gatunek: Animacja,Komedia,Przygodowy
premiera: 9 maja 2014 (Polska) 20 marca 2014 (świat)
reżyseria: Carlos Saldanha
scenariusz: Carlos SaldanhaJenny BicksYoni BrennerCarlos Kotkin
http://www.filmweb.pl/film/Rio+2-2014-657675 http://www.imdb.com/title/tt2357291/

Kontynuacja barwnych przygód bohaterów animowanego przeboju z roku 2011. Blu, Julia i trójka ich dzieci wiodą rodzinny tryb życia, ale Julia obawia się, że jej dzieci nigdy nie poznają, co to znaczy być wolnym ptakiem. Ku jej zdumieniu Blu postanawia zabrać całą rodzinę na wyprawę do dżungli. Wyruszają do Amazonii, gdzie na ich trop wpada dawny przeciwnik, Nigel.

Obsada:

Grzegorz Drojewski...Blu
Agnieszka Dygant...Jewel
Wiktor Zborowski...Nigel
Piotr Bajtlik...Nico
Krzysztof Pluskota...Pedro

Miłogost Reczek...Rafael
Agata Buzek...Linda
Wojciech Paszkowski...Tulio
Krzysztof Kowalewski...Luiz
Waldemar Barwiński...Felippe
Zbigniew Konopka...Eduardo
Magdalena Stużyńska...Gabi
Julia Chatys...Carla
Mateusz Ceran...Tiago
Magdalena Kusa...Bia
Barbara Zielińska...Ciocia Mimi
Mirosław Zbrojewicz...Wielki Boss
Miriam Aleksandrowicz...Eva

General

Format : Matroska
Format version : Version 2
File size : 3.97 GiB
Duration : 1h 41mn
Overall bit rate : 5 623 Kbps
Movie name : Rio 2.Title800.Bluray3DRip by Leon 345
Encoded date : UTC 2014-07-18 10:50:29
Writing application : mkvmerge v5.7.0 ('The Whirlwind') built on Jul 8 2012 20:08:51
Writing library : libebml v1.2.3 + libmatroska v1.3.0

Video
ID : 1
Format : AVC
Format/Info : Advanced Video Codec
Format profile : [email protected]/* */
Format settings, CABAC : Yes
Format settings, ReFrames : 2 frames
Codec ID : V_MPEG4/ISO/AVC
Duration : 1h 41mn
Bit rate : 4 807 Kbps
Width : 1 920 pixels
Height : 1 080 pixels
Display aspect ratio : 16:9 (2.39:1)
Frame rate mode : Constant
Frame rate : 23.976 fps
Color space : YUV
Chroma subsampling : 4:2:0
Bit depth : 8 bits
Scan type : Progressive
Bits/(Pixel*Frame) : 0.097
Stream size : 3.40 GiB (85%)
Title : Rip by Leon 345
Writing library : x264 core
Default : Yes
Forced : No

Audio #1
ID : 2
Format : AC-3
Format/Info : Audio Coding 3
Mode extension : CM (complete main)
Format settings, Endianness : Big
Codec ID : A_AC3
Duration : 1h 41mn
Bit rate mode : Constant
Bit rate : 384 Kbps
Channel(s) : 6 channels
Channel positions : Front: L C R, Side: L R, LFE
Sampling rate : 48.0 KHz
Bit depth : 16 bits
Compression mode : Lossy
Stream size : 278 MiB (7%)
Title : AC3 5.1 Dubbing PL
Language : Polish
Default : Yes
Forced : Yes

Audio #2
ID : 3
Format : AC-3
Format/Info : Audio Coding 3
Mode extension : CM (complete main)
Format settings, Endianness : Big
Codec ID : A_AC3
Duration : 1h 41mn
Bit rate mode : Constant
Bit rate : 320 Kbps
Channel(s) : 6 channels
Channel positions : Front: L C R, Side: L R, LFE
Sampling rate : 48.0 KHz
Bit depth : 16 bits
Compression mode : Lossy
Stream size : 232 MiB (6%)
Title : AC3 5.1
Language : English
Default : No
Forced : No


Source [thx]:
V- Rio 2 (2014) BD3D-Remux
A- BD