Robbie Williams – Go Gentle [Music Video] 720p [Sbyky]


Size : 46.18 MiB (48420225 Bytes)


General
Complete name













: Robbie Williams - Go Gentle [Music Video] 720p [Sbyky].mp4
Format
















: MPEG-4
Format profile












: Base Media / Version 2
Codec ID















: mp42
File size















: 46.2 MiB
Duration















: 3mn 49s
Overall bit rate mode









: Variable
Overall bit rate











: 1 688 Kbps
Encoded date













: UTC 2013-12-03 02:43:57
Tagged date














: UTC 2013-12-03 02:43:57

Video
ID


















: 1
Format
















: AVC
Format/Info














: Advanced Video Codec
Format profile












: [email protected]/* */
Format settings, CABAC








: Yes
Format settings, ReFrames







: 1 frame
Codec ID















: avc1
Codec ID/Info













: Advanced Video Coding
Duration















: 3mn 49s
Bit rate















: 1 494 Kbps
Maximum bit rate











: 3 115 Kbps
Width

















: 1 280 pixels
Height
















: 720 pixels
Display aspect ratio









: 16:9
Frame rate mode












: Constant
Frame rate














: 23.976 fps
Color space














: YUV
Chroma subsampling










: 4:2:0
Bit depth















: 8 bits
Scan type















: Progressive
Bits/(Pixel*Frame)










: 0.068
Stream size














: 40.9 MiB (88%)
Tagged date














: UTC 2013-12-03 02:43:58

Audio
ID


















: 2
Format
















: AAC
Format/Info














: Advanced Audio Codec
Format profile












: LC
Codec ID















: 40
Duration















: 3mn 49s
Bit rate mode













: Variable
Bit rate















: 192 Kbps
Maximum bit rate











: 202 Kbps
Channel(s)














: 2 channels
Channel positions











: Front: L R
Sampling rate













: 44.1 KHz
Compression mode











: Lossy
Stream size














: 5.25 MiB (11%)
Title

















: IsoMedia File Produced by Google, 5-11-2011
Encoded date













: UTC 2013-12-03 02:43:58
Tagged date














: UTC 2013-12-03 02:43:58

Shared By Sbyky