Salem S03E04 1080p WEB-DL HEVC DD5.1 x265


Size : 743.12 MiB (779217539 Bytes)

Source:Salem S03E04 1080p WEB-DL x264-FUM (1.71 GB)


Complete name: Salem.S03E04.1080p.WEB-DL.HEVC.DD5.1.x265.mkv
Format
















: Matroska
Format version












: Version 4 / Version 2
File size















: 743 MiB
Duration















: 44mn 34s
Overall bit rate











: 2 331 Kbps
Writing application










: Lavf57.25.100

Video

ID


















: 1
Format
















: V_MPEGH/ISO/HEVC
Duration















: 44mn 34s
Bit rate















: 1 901 Kbps
Width

















: 1 920 pixels
Height
















: 1 080 pixels
Display aspect ratio









: 16:9
Frame rate














: 25.000 fps
Bits/(Pixel*Frame)










: 0.037
Stream size














: 606 MiB (82%)
Default
















: Yes
Forced
















: No
DURATION















: 00:44:34.211000000

Audio

ID


















: 2
Format
















: AC-3
Format/Info














: Audio Coding 3
Mode extension












: CM (complete main)
Format settings, Endianness






: Big
Codec ID















: A_AC3
Duration















: 44mn 34s
Bit rate mode













: Constant
Bit rate















: 384 Kbps
Channel(s)














: 6 channels
Channel positions











: Front: L C R, Side: L R, LFE
Sampling rate













: 48.0 KHz
Bit depth















: 16 bits
Compression mode











: Lossy
Stream size














: 122 MiB (16%)
Writing library












: Lavc57.24.102 ac3
Default
















: Yes
Forced
















: No
DURATION















: 00:44:34.271000000

Text

ID


















: 3
Codec ID















: S_TEXT/ASS
Language















: English