Salem S03E04 720p WEB-DL HEVC 2CH x265


Size : 332.15 MiB (348282276 Bytes)

Source:Salem S03E04 1080p WEB-DL x264-FUM (1.71 GB)


Complete name: Salem.S03E04.720p.WEB-DL.HEVC.2CH.x265.mkv
Format
















: Matroska
Format version












: Version 4 / Version 2
File size















: 332 MiB
Duration















: 44mn 34s
Overall bit rate











: 1 042 Kbps
Writing application










: Lavf57.25.100

Video

ID


















: 1
Format
















: V_MPEGH/ISO/HEVC
Duration















: 44mn 34s
Bit rate















: 829 Kbps
Width

















: 1 274 pixels
Height
















: 720 pixels
Display aspect ratio









: 16:9
Frame rate














: 25.000 fps
Bits/(Pixel*Frame)










: 0.036
Stream size














: 264 MiB (80%)
Default
















: Yes
Forced
















: No
DURATION















: 00:44:34.211000000

Audio

ID


















: 2
Format
















: AC-3
Format/Info














: Audio Coding 3
Mode extension












: CM (complete main)
Format settings, Endianness






: Big
Codec ID















: A_AC3
Duration















: 44mn 34s
Bit rate mode













: Constant
Bit rate















: 192 Kbps
Channel(s)














: 2 channels
Channel positions











: Front: L R
Sampling rate













: 48.0 KHz
Bit depth















: 32 bits
Compression mode











: Lossy
Stream size














: 61.2 MiB (18%)
Writing library












: Lavc57.24.102 ac3
Default
















: Yes
Forced
















: No
DURATION















: 00:44:34.271000000

Text

ID


















: 3
Codec ID















: S_TEXT/ASS
Language















: English