Sam Smith – Writing’s On The Wall (from Spectre) 2015

Magnet Download Torrent Download

Size : 94.08 MiB (98650289 Bytes)

SAM SMITH - WRITING'S ON THE WALL

http://gifyu.com/images/spectre-1.png
http://gifyu.com/images/spectre-2.png
http://gifyu.com/images/spectre-3.png


MEDIA INFO
General
Sam Smith - Writing's On The Wall
Format
















: MPEG-4
Format profile












: Base Media
Codec ID















: isom
File size















: 94.1 MiB
Duration















: 4mn 44s
Overall bit rate











: 2 774 Kbps
MusicVid name













: Writing's On The Wall
Performer















: Sam Smith
Genre

















: Soundtrack/Pop
ContentType














: Music Video
Recorded date













: 2015
Comment
















: from the James Bond movie:Spectre
Make

















: MeRaDil
Release date













: UK - october 4 - 2015

Video
ID


















: 1
Format
















: AVC
Format/Info














: Advanced Video Codec
Format profile












: [email protected]/* */
Format settings, CABAC








: Yes
Format settings, ReFrames







: 2 frames
Codec ID















: avc1
Codec ID/Info













: Advanced Video Coding
Duration















: 4mn 44s
Bit rate















: 2 512 Kbps
Width

















: 1 920 pixels
Height
















: 1 080 pixels
Display aspect ratio









: 16:9
Frame rate mode












: Constant
Frame rate














: 25.000 fps
Color space














: YUV
Chroma subsampling










: 4:2:0
Bit depth















: 8 bits
Scan type















: Progressive
Bits/(Pixel*Frame)










: 0.048
Stream size














: 85.2 MiB (91%)

Audio
ID


















: 2
Format
















: AAC
Format/Info














: Advanced Audio Codec
Format profile












: LC
Codec ID















: 40
Duration















: 4mn 44s
Bit rate mode













: Constant
Bit rate















: 256 Kbps
Channel(s)














: 2 channels
Channel positions











: Front: L R
Sampling rate













: 44.1 KHz
Compression mode











: Lossy
Stream size














: 8.68 MiB (9%)

Sam Smith * James Bond Spectre * Soundtrack/Pop * Promo