Sanctum (2011) 3D sbs 720p


Size : 3.52 GiB (3783960656 Bytes)

Storyline

The 3-D action-thriller Sanctum follows a team of underwater cave divers on a treacherous expedition to the largest, most beautiful and least accessible cave system on Earth. When a tropical storm forces them deep into the caverns, they must fight raging water, deadly terrain and creeping panic as they search for an unknown escape route to the sea. Master diver Frank McGuire has explored the South Pacific's Esa-ala Caves for months. But when his exit is cut off in a flash flood, Frank's team-including 17-year-old son Josh and financier Carl Hurley are forced to radically alter plans. With dwindling supplies, the crew must navigate an underwater labyrinth to make it out. Soon, they are confronted with the unavoidable question: Can they survive, or will they be trapped forever?


Format












: Matroska
Format version








: Version 1
File size











: 3.52 GiB
Duration











: 1h 48mn
Overall bit rate







: 4 638 Kbps
Encoded date









: UTC 2011-12-16 07:38:03
Writing application






: AVSMatroskaFile
Writing library








: libebml v0.7.7 + libmatroska v0.8.1

Video
ID














: 1
Format












: AVC
Format/Info










: Advanced Video Codec
Format profile








: [email protected]/* */
Format settings, CABAC




: Yes
Format settings, ReFrames



: 2 frames
Codec ID











: V_MPEG4/ISO/AVC
Duration











: 1h 48mn
Bit rate











: 4 289 Kbps
Width













: 1 280 pixels
Height












: 720 pixels
Display aspect ratio





: 16:9
Frame rate










: 23.976 fps
Color space










: YUV
Chroma subsampling






: 4:2:0
Bit depth











: 8 bits
Scan type











: Progressive
Bits/(Pixel*Frame)






: 0.194
Stream size










: 3.26 GiB (92%)

Audio
ID














: 2
Format












: MPEG Audio
Format version








: Version 1
Format profile








: Layer 3
Codec ID











: A_MPEG/L3
Codec ID/Hint









: MP3
Duration











: 1h 48mn
Bit rate mode









: Constant
Bit rate











: 256 Kbps
Channel(s)










: 2 channels
Sampling rate









: 44.1 KHz
Compression mode







: Lossy
Stream size










: 199 MiB (6%)
Writing library








: LAMELAME_MAJOR_VERSI