Scream Queens 2015 S02E07 The Hand 1080p WEB-DL HEVC DD5.1 x265


Size : 715.68 MiB (750442361 Bytes)

Source:Scream Queens 2015 S02E07 The Hand 1080p WEB-DL DD5.1 H264-NTb (1.7 GB)


Complete name: Scream.Queens.2015.S02E07.The.Hand.1080p.WEB-DL.HEVC.DD5.1.x265.mkv
Format
















: Matroska
Format version












: Version 4 / Version 2
File size















: 716 MiB
Duration















: 43mn 7s
Overall bit rate











: 2 320 Kbps
Writing application










: Lavf57.25.100

Video

ID


















: 1
Format
















: V_MPEGH/ISO/HEVC
Duration















: 43mn 7s
Bit rate















: 1 890 Kbps
Width

















: 1 920 pixels
Height
















: 1 080 pixels
Display aspect ratio









: 16:9
Frame rate














: 25.000 fps
Bits/(Pixel*Frame)










: 0.036
Stream size














: 583 MiB (81%)
Default
















: Yes
Forced
















: No
DURATION















: 00:43:07.331000000

Audio

ID


















: 2
Format
















: AC-3
Format/Info














: Audio Coding 3
Mode extension












: CM (complete main)
Format settings, Endianness






: Big
Codec ID















: A_AC3
Duration















: 43mn 7s
Bit rate mode













: Constant
Bit rate















: 384 Kbps
Channel(s)














: 6 channels
Channel positions











: Front: L C R, Side: L R, LFE
Sampling rate













: 48.0 KHz
Bit depth















: 32 bits
Compression mode











: Lossy
Stream size














: 118 MiB (17%)
Writing library












: Lavc57.24.102 ac3
Default
















: Yes
Forced
















: No
DURATION















: 00:43:07.359000000

Text

ID


















: 3
Codec ID















: S_TEXT/ASS
Language















: English