Selena Gomez – Same Old Love (2015.Electropop)


Size : 118.84 MiB (124615055 Bytes)

SELENA GOMEZ - SAME OLD LOVE

http://ultraimg.com/images/selena-01.png
http://ultraimg.com/images/selena-02.png
http://ultraimg.com/images/selena-03.png
http://ultraimg.com/images/selena-04.png


MEDIA INFO
General
Selena Gomez - Same Old Love
Format
















: MPEG-4
Format profile












: Base Media
Codec ID















: isom
File size















: 119 MiB
Duration















: 4mn 24s
Overall bit rate











: 3 773 Kbps
MusicVid name













: Same Old Love
Album

















: Revival
Performer















: Selena Gomez
Genre

















: Electropop
ContentType














: Music Video
Recorded date













: 2015
Make

















: MeRaDil
Release date













: USA . september 22 . 2015

Video
ID


















: 1
Format
















: AVC
Format/Info














: Advanced Video Codec
Format profile












: [email protected]/* */
Format settings, CABAC








: Yes
Format settings, ReFrames







: 2 frames
Codec ID















: avc1
Codec ID/Info













: Advanced Video Coding
Duration















: 4mn 24s
Bit rate















: 3 511 Kbps
Width

















: 1 920 pixels
Height
















: 1 080 pixels
Display aspect ratio









: 16:9
Frame rate mode












: Variable
Frame rate














: 23.976 fps
Minimum frame rate










: 23.974 fps
Maximum frame rate










: 23.981 fps
Color space














: YUV
Chroma subsampling










: 4:2:0
Bit depth















: 8 bits
Scan type















: Progressive
Bits/(Pixel*Frame)










: 0.071
Stream size














: 111 MiB (93%)

Audio
ID


















: 2
Format
















: AAC
Format/Info














: Advanced Audio Codec
Format profile












: LC
Codec ID















: 40
Duration















: 4mn 24s
Bit rate mode













: Constant
Bit rate















: 256 Kbps
Channel(s)














: 2 channels
Channel positions











: Front: L R
Sampling rate













: 44.1 KHz
Compression mode











: Lossy
Stream size














: 8.06 MiB (7%)
https://thepiratebay.la/user/MeRaDil

Selena Gomez * Revival * Electropop * Promo