Shakira – Try Everything (from Zootopia) 2016


Size : 99.73 MiB (104573920 Bytes)

MEDIA INFO
Shakira - Try Everything
Format
















: MPEG-4
Format profile












: Base Media
Codec ID















: isom (isom/iso2/avc1/mp41)
File size















: 99.7 MiB
Duration















: 3mn 22s
Overall bitrate












: 4 134 Kbps
MusicVid name













: Try Everything
Performer















: Shakira
Publisher















: MeRaDil
Genre

















: Soundtrack
ContentType














: Music Video
Recorded date













: 2016
Writing application










: Lavf54.29.104/MeRaDil
Cover

















: Yes
Comment
















: from Disneys
ZOOTOPIA
Rating
















: ***
Release date













: USA/Spain - march 3 - 2016
http://gifyu.com/images/SHAKIRA-1.png
http://gifyu.com/images/SHAKIRA-2.png

Video
ID


















: 1
Format
















: AVC
Format/Info














: Advanced Video Codec
Format profile












: [email protected]/* */
Format settings, CABAC








: Yes
Format settings, ReFrames







: 2 frames
Codec ID















: avc1
Codec ID/Info













: Advanced Video Coding
Duration















: 3mn 22s
Bit rate















: 3 862 Kbps
Width

















: 1 920 pixels
Height
















: 1 080 pixels
Display aspect ratio









: 16:9
Frame rate mode












: Variable
Frame rate














: 23.976 (24000/1001) fps
Color space














: YUV
Chroma subsampling










: 4:2:0
Bit depth















: 8 bits
Scan type















: Progressive
Bits/(Pixel*Frame)










: 0.078
Stream size














: 93.1 MiB (93%)
Color range














: Limited

Audio
ID


















: 2
Format
















: AAC
Format/Info














: Advanced Audio Codec
Format profile












: LC
Codec ID















: 40
Duration















: 3mn 22s
Bit rate mode













: Constant
Bit rate















: 256 Kbps
Channel(s)














: 2 channels
Channel positions











: Front: L R
Sampling rate













: 44.1 KHz
Frame rate














: 43.066 fps (1024 spf)
Compression mode











: Lossy
Stream size














: 6.18 MiB (6%)
Default
















: Yes
Alternate group












: 1
http://gifyu.com/images/SHAKIRA-3.png