Shameless US S04 Season 4 720p 5.1Ch BluRay ReEnc-DeeJayAhmed


Size : 5.11 GiB (5486026493 Bytes)

DeeJayAhmed
https://www.DeeJayAhmed.com
Keep Seeding!!=))
Do Comment On The A/V Quality Considering The Size Of The File..!
Help Me By Donating Bitcoins : 14i1UCWye2SCjoAHR5u6LDswWgAy55dxAv

Video
ID : 1
Format : AVC
Format/Info : Advanced Video Codec
Format profile : [email protected]/* */
Format settings, CABAC : Yes
Format settings, ReFrames : 8 frames
Codec ID : V_MPEG4/ISO/AVC
Duration : 56mn 6s
Bit rate : 948 Kbps
Width : 1 280 pixels
Height : 720 pixels
Display aspect ratio : 16:9
Frame rate mode : Constant
Frame rate : 23.976 (24000/1001) fps
Color space : YUV
Chroma subsampling : 4:2:0
Bit depth : 8 bits
Scan type : Progressive
Bits/(Pixel*Frame) : 0.043
Stream size : 380 MiB (84%)
Default : Yes
Forced : No

Audio
ID : 2
Format : AAC
Format/Info : Advanced Audio Codec
Format profile : HE-AAC / LC
Codec ID : A_AAC
Duration : 56mn 7s
Bit rate : 179 Kbps
Channel(s) : 6 channels
Channel positions : Front: L C R, Side: L R, LFE
Sampling rate : 48.0 KHz / 24.0 KHz
Frame rate : 23.438 fps (1024 spf)
Compression mode : Lossy
Delay relative to video : 31ms
Stream size : 71.8 MiB (16%)
Language : English
Default : Yes
Forced : No