Shania Twain – Man I Feel Like A Woman (Live from Vegas)


Size : 132.37 MiB (138795190 Bytes)

SHANIA TWAIN - MAN I FEEL LIKE A WOMAN (LIVE FROM VEGAS)

http://gifyu.com/images/shania.png
http://gifyu.com/images/ShaniaTwain.png


General
Shania Twain - Man I Feel Like A Woman (Live)
Format










: MPEG-4
Format profile






: Base Media
Codec ID









: isom
File size








: 132 MiB
Duration









: 4mn 12s
Overall bit rate





: 4 397 Kbps
Movie name








: Man I Feel Like A Woman (Live)
Album










: Still The One : Live from Vegas
Performer








: Shania Twain
Genre










: Country
ContentType







: Music Video
Recorded date






: 2015
Copyright








: Shania Twain
Cover










: Yes
Rating










: ****
Make











: MeRaDil
Artist url








: http://www.shaniatwain.com
release









: Canada/USA . february 20 . 2015
Part_ID









: Man I Feel Like A Woman

Video
ID












: 1
Format










: AVC
Format/Info







: Advanced Video Codec
Format profile






: [email protected]/* */
Format settings, CABAC


: Yes
Format settings, ReFrames
: 2 frames
Codec ID









: avc1
Codec ID/Info






: Advanced Video Coding
Duration









: 4mn 12s
Bit rate









: 4 134 Kbps
Width










: 1 920 pixels
Height










: 1 080 pixels
Display aspect ratio



: 16:9
Frame rate mode





: Variable
Frame rate








: 23.976 fps
Minimum frame rate




: 23.974 fps
Maximum frame rate




: 23.981 fps
Color space







: YUV
Chroma subsampling




: 4:2:0
Bit depth








: 8 bits
Scan type








: Progressive
Bits/(Pixel*Frame)




: 0.083
Stream size







: 124 MiB (94%)

Audio
ID












: 2
Format










: AAC
Format/Info







: Advanced Audio Codec
Format profile






: LC
Codec ID









: 40
Duration









: 4mn 12s
Bit rate mode






: Constant
Bit rate









: 256 Kbps
Channel(s)








: 2 channels
Channel positions




: Front: L R
Sampling rate






: 44.1 KHz
Compression mode





: Lossy
Stream size







: 7.71 MiB (6%)
https://thepiratebay.se/user/MeRaDil

Canada/USA february 2015 * Live performance

:)