Silentó – Watch Me [Whip Nae Nae] 1080p [Sbyky]


Size : 100.64 MiB (105533568 Bytes)

General
Complete name













: Silentó - Watch Me [Whip Nae Nae] 1080p [Sbyky].mp4
Format
















: MPEG-4
Format profile












: Base Media
Codec ID















: isom
File size















: 101 MiB
Duration















: 3mn 22s
Overall bit rate mode









: Variable
Overall bit rate











: 4 171 Kbps
Encoded date













: UTC 2015-06-24 22:47:52
Tagged date














: UTC 2015-06-24 22:47:52

Video
ID


















: 1
Format
















: AVC
Format/Info














: Advanced Video Codec
Format profile












: [email protected]/* */
Format settings, CABAC








: Yes
Format settings, ReFrames







: 2 frames
Codec ID















: avc1
Codec ID/Info













: Advanced Video Coding
Duration















: 3mn 22s
Bit rate















: 4 042 Kbps
Width

















: 1 920 pixels
Height
















: 1 080 pixels
Display aspect ratio









: 16:9
Frame rate mode












: Variable
Frame rate














: 23.976 fps
Minimum frame rate










: 23.974 fps
Maximum frame rate










: 23.981 fps
Color space














: YUV
Chroma subsampling










: 4:2:0
Bit depth















: 8 bits
Scan type















: Progressive
Bits/(Pixel*Frame)










: 0.081
Stream size














: 97.5 MiB (97%)
Encoded date













: UTC 2015-06-24 22:47:52
Tagged date














: UTC 2015-06-24 22:47:52

Audio
ID


















: 2
Format
















: AAC
Format/Info














: Advanced Audio Codec
Format profile












: LC
Codec ID















: 40
Duration















: 3mn 22s
Bit rate mode













: Variable
Bit rate















: 126 Kbps
Channel(s)














: 2 channels
Channel positions











: Front: L R
Sampling rate













: 44.1 KHz
Compression mode











: Lossy
Stream size














: 3.03 MiB (3%)
Encoded date













: UTC 2015-06-24 22:45:40
Tagged date














: UTC 2015-06-24 22:45:40

Shared By Sbyky
[IMG]http://yuq.me/users/18/139/0aq32UMZvX.gif[/IMG]
[IMG]http://yuq.me/users/18/139/bQg62viaEG.gif[/IMG]